Мега распродажа FORZA HORIZON 4 ULTIMATE+ВСЕ DLC+ОНЛАЙН всего за 499р. 349 руб. (супер цена). Внимание количество ограничено!!!

Лицензия

30

iTunes

мы

iTunes

1

1 сезон

Чернобыль

1 сезон

Ральф против интернета

MVO

Покемон. Детектив Пикачу

8 сезон

Игра престолов

iTunes

1+1

ИГРА 18+

pack

ВАЖНО

!!Акция!!

Alien_RageХит недели

RePack

Resident Evil 21
pack

RePack

Metro:Exodus

!!Акция!!

Alien_Rage

RePack

fifa19

RePack

Assassins Creed: Odyssey

RePack

NEED FOR SPEED™ PAYBACK

3 сезон

9 сезон

Бесстыжие 9 сезон

Все сериалы

все сериалы на PB.wtf

RePack

FAR CRY 5
Ребята, катастрофически не хватает 2730р. для оплаты серверов за МАЙ (всвязи с блокировками трафик упал в 3 раза), 1-2р., выручайте.
  

Бок о бок / Торговый пункт / Trading Paint (Каржан Кадер) [2019, боевик, триллер, драма, спорт, BDRip-AVC] MVO [HDRezka Studio] - ExKinoRay pb.wtf

Бок о бок через торрент pb.wtf

Раздают: 851 [ 6 MB/s ] Качают: 23 [ 3 MB/s ]
Размер: 1.49 GB | Добавлен: 1 мес. 3 д. назад | Торрент скачан:188 раз
Скачать  

07-03-2019 23:47 Бок о бок Скачать торрент  

Информация о фильме
Название: Бок о бок / Торговый пункт
Оригинальное название: Trading Paint
Год выхода: 2019
Жанр: Боевик, триллер, драма, спорт
Режиссер: Каржан Кадер
В ролях: Джон Траволта, Майкл Мэдсен, Кевин Данн, Розабелла Лауренти Селлерс, Шенайя Твейн, Бэрри Корбин, Бак Тейлор, Тоби Себастьян, Одри Элизабет Фафард, Фэйт Брунер

Описание: Кэм — сын легендарного автогонщика Сэма Монро, переставшего выступать несколько лет назад. Выбрав путь отца, он участвует в заездах в его команде, но не может победить. После очередного поражения Кэм понимает, что с Сэмом его профессиональная карьера не сдвинется с места, поэтому, когда конкуренты предлагают ему присоединиться к их команде, он сразу же соглашается. Этот поступок обескураживает отца, возлагавшего на сына большие надежды, и тогда он решает снова надеть гоночную форму, чтобы противостоять Кэму на трассе.

rating

Страна: Испания, Италия, Великобритания
Продолжительность: 01:27:15
Перевод:Профессиональный многоголосый [HDRezka Studio]
Субтитры: Английские

БЕЗ КАКОЙ-ЛИБО РЕКЛАМЫ!

Формат: MKV
Качество: BDRip-AVC
Видео: MPEG-4 AVC, 1024x428 (2.40:1), 23.976 fps, 1802 Kbps, 0.171 bit/pixel
Аудио #01: 48 kHz, AC3, 2.0, 192 Kbps | HDRezka | RUS |
Аудио #02: 48 kHz, AC3, 5.1, 448 Kbps | Оригинал | ENG |
General
Unique ID : 184260003447548671841856282340649831743 (0x8A9F2F91D9BE4D328890F8806EC38D3F)
Complete name : F:\Trading.Paint.2019.MVO.BDRip.AVC.ExKinoRay.mkv
Format : Matroska
Format version : Version 2
File size : 1.49 GiB
Duration : 1 h 27 min
Overall bit rate : 2 445 kb/s
Movie name : Trading Paint 2019 from ExKinoRay
Encoded date : UTC 2019-05-23 04:43:31
Writing application : mkvmerge v5.6.0 ('Kenya Kane') built on May 27 2012 16:44:04
Writing library : libebml v1.2.3 + libmatroska v1.3.0

Video
ID : 1
Format : AVC
Format/Info : Advanced Video Codec
Format profile : High@L4.1
Format settings, CABAC : Yes
Format settings, ReFrames : 12 frames
Codec ID : V_MPEG4/ISO/AVC
Duration : 1 h 27 min
Bit rate : 1 802 kb/s
Width : 1 024 pixels
Height : 428 pixels
Display aspect ratio : 2.40:1
Frame rate mode : Constant
Frame rate : 23.976 (23976/1000) FPS
Color space : YUV
Chroma subsampling : 4:2:0
Bit depth : 8 bits
Scan type : Progressive
Bits/(Pixel*Frame) : 0.171
Stream size : 1.07 GiB (72%)
Title : Enigma
Writing library : x264 core 152 r2851 ba24899
Encoding settings : cabac=1 / ref=12 / deblock=1:-2:-2 / analyse=0x3:0x113 / me=umh / subme=10 / psy=1 / psy_rd=1.02:0.06 / mixed_ref=1 / me_range=32 / chroma_me=1 / trellis=2 / 8x8dct=1 / cqm=0 / deadzone=21,11 / fast_pskip=0 / chroma_qp_offset=-3 / threads=12 / lookahead_threads=3 / sliced_threads=0 / nr=0 / decimate=0 / interlaced=0 / bluray_compat=0 / constrained_intra=0 / bframes=12 / b_pyramid=2 / b_adapt=2 / b_bias=0 / direct=3 / weightb=1 / open_gop=0 / weightp=2 / keyint=240 / keyint_min=23 / scenecut=40 / intra_refresh=0 / rc=2pass / mbtree=0 / bitrate=1802 / ratetol=1.0 / qcomp=0.65 / qpmin=0 / qpmax=51 / qpstep=4 / cplxblur=20.0 / qblur=0.5 / ip_ratio=1.30 / pb_ratio=1.20 / aq=3:0.80
Language : English
Default : Yes
Forced : No
Color range : Limited
Color primaries : BT.709
Transfer characteristics : BT.709
Matrix coefficients : BT.709

Audio #1
ID : 2
Format : AC-3
Format/Info : Audio Coding 3
Mode extension : CM (complete main)
Format settings, Endianness : Big
Codec ID : A_AC3
Duration : 1 h 27 min
Bit rate mode : Constant
Bit rate : 192 kb/s
Channel(s) : 2 channels
Channel positions : Front: L R
Sampling rate : 48.0 kHz
Frame rate : 31.250 FPS (1536 spf)
Compression mode : Lossy
Stream size : 120 MiB (8%)
Title : MVO (HDRezka Studio)
Language : Russian
Default : Yes
Forced : No

Audio #2
ID : 3
Format : AC-3
Format/Info : Audio Coding 3
Mode extension : CM (complete main)
Format settings, Endianness : Big
Codec ID : A_AC3
Duration : 1 h 27 min
Bit rate mode : Constant
Bit rate : 448 kb/s
Channel(s) : 6 channels
Channel positions : Front: L C R, Side: L R, LFE
Sampling rate : 48.0 kHz
Frame rate : 31.250 FPS (1536 spf)
Compression mode : Lossy
Stream size : 280 MiB (18%)
Language : English
Default : No
Forced : No

Text
ID : 4
Format : UTF-8
Codec ID : S_TEXT/UTF8
Codec ID/Info : UTF-8 Plain Text
Language : English
Default : No
Forced : No

Menu
00:00:00.000 : en:Chapter 01
00:06:09.410 : en:Chapter 02
00:09:57.179 : en:Chapter 03
00:15:44.026 : en:Chapter 04
00:20:36.610 : en:Chapter 05
00:26:46.563 : en:Chapter 06
00:33:00.645 : en:Chapter 07
00:38:24.885 : en:Chapter 08
00:42:32.007 : en:Chapter 09
00:45:46.034 : en:Chapter 10
00:49:54.950 : en:Chapter 11
00:55:05.593 : en:Chapter 12
01:00:53.107 : en:Chapter 13
01:04:55.933 : en:Chapter 14
01:08:54.338 : en:Chapter 15
01:12:28.302 : en:Chapter 16
Релиз от:

Автор релиза: pb.wtf



Скачать Бок о бок через торрент https://i3.imageban.ru/out/2019/03/07/13a3c54ce0a995979b4504c961d1b4e3.jpg Скачать фильм Бок о бок через торрент бесплантно в хорошем качестве Описание: Кэм — сын легендарного автогонщика Сэма Монро, переставшего выступать несколько лет назад. Выбрав путь отца, он участвует в ... 9.2 10 13
Info! Золотая раздача, скачанное не засчитывается.
Торрент: Зарегистрирован [2019-05-23 05:13] · скачан: 188 раз
Статус: T временная
Размер: 1.49 GB
Как cкачать? Как скачать Бок о бок через торрент | qTorrent



Последний раз редактировалось: Enigma2010 (2019-05-23 05:13), всего редактировалось 1 раз


>> Регистрируемся здесь <<






Отзывы и комментарии о схеме читаем и пишем здесь: ---> Отзывы и комментарии о схеме

Новые благодарочки в телеграм довольных пользователей:
скриншот   скриншот   скриншот   скриншот   скриншот

08-03-2019 05:04 Бок о бок Скачать торрент  

перевод неправильно,(Paint-краска, Pоint-пункт). Да, Джон скатился...pb.wtf



23-05-2019 05:14 Бок о бок Скачать торрент  

Замена на BDRip (AVC).pb.wtf



25-05-2019 12:34 Бок о бок Скачать торрент  

КАК фильмpb.wtf



    Дорогой пользователь! Огромная просьба, поблагодарите релизера, оцените раздачу и оставьте свои комментарий, если Вы скачали Бок о бок через торрент бесплатно! Внесите свою лепту в развитие PiratBit!
    Комментировать посты могут только пользователи прошедшие не сложную регистрацию
    Показать сообщения:    

    Бок о бок через торрент
    Скачать бесплатно Бок о бок
    Бок о бок скачать торрент
    Бок о бок смотреть онлайн
    Cкачать фильм Бок о бок бесплатно
    Бок о бок скачать торрент в хорошем качестве
    Бок о бок смотреть онлайн бесплатно в хорошем качестве


    Вы не можете начинать темы
    Вы не можете отвечать на сообщения
    Вы не можете редактировать свои сообщения
    Вы не можете удалять свои сообщения
    Вы не можете голосовать в опросах
    Вы не можете прикреплять файлы к сообщениям
    Вы можете скачивать файлы