Всегда рабочее зеркало без VPN и Proxy просто перед .vidak.icu напиши любое слово или цифру, Пример http://9dmg.vidak.icu

iTunes

2 сезон

1 сезон

1

1 сезон

iTunes

2 сезон

13

1 сезон

Deluxe

pack

Рекомендуем

Пиратка

30

ВАЖНО

RePack

MK11

RePack

jed

RePack

fifa19

RePack

RDR2

RePack

NEED FOR SPEED™ PAYBACK

Кинопоиск HD

6 сезон

 Острые козырьки 6 сезон

Все сериалы

все сериалы на PB.wtf

RePack

FAR CRY 5

Anonymous, нам критически не хватает 5601 руб. на оплату серверов и переферии за Апрель, помоги нам пожалуйста, вся надежда только на тебя. В благодарность мы отключим тебе всю рекламу на сайте!

×
  
Magnet ссылка

Язык-убийца / Killer Tongue (Альберто Скьямма) [1996 г., ужасы, фантастика, комедия, DVDRip] AVO (Андрей Дольский) pb.wtf

Язык-убийца через торрент pb.wtf

Размер: 1.47 GB | Добавлен: 3 года назад | Торрент скачан:9 раз
Смотреть онлайн Язык-убийца | Скачать    Ребята, помогите собрать деньги на оплату серверов!!!

25-05-2019 22:10 Язык-убийца Скачать торрент  

Язык-убийца / Killer Tongue Год выпуска: 1996

Страна: Великобритания, Испания

Жанр: Ужасы, фантастика, комедия

Продолжительность: 01:34:50

Перевод: Авторский (одноголосый)

Режиссер: Альберто Скьямма

rating

В ролях: Роберт Инглунд, Мелинда Кларк, Джейсон Дурр, Мапи Галан, Мэйбл Карр, Алисия Боррачеро, Даг Брэдли, Майкл Кул, Дэвид Дэйл, Дэнни Эдвардс

Описание: Падение метеорита оказало влияние на всю округу. Героиня фильма Кэнди принимает сексапильный облик хорошенькой путаны. Но это только начало её неприятностей. Неожиданно у неё вырастает огромный, неподвластный ей, дикий и злой, вечно голодный и кровожадный язык, которого она назвала убийцей. Он существует как бы отдельно от хозяйки. Итак, приключения начались. Так что же хочет этот язык-убийца?
Качество: DVDRip
Формат: AVI
Видео кодек: XviD
Аудио кодек: AC3
Видео: XviD, 1817 Кбит/с, 720x304
Аудио#1: Русский, AC3, 2 ch, 192 Кбит/с - AVO (Андрей Дольский)
Аудио#2: Английский, AC3, 2 ch, 192 Кбит/с

Видео
Идентификатор : 0
Формат : MPEG-4 Visual
Профиль формата : Advanced Simple@L5
Настройки формата : BVOP1
Параметр BVOP формата : 1
Параметр QPel формата : Нет
Параметр GMC формата : Без точки перехода
Параметр матрицы формата : Default (MPEG)
Идентификатор кодека : XVID
Идентификатор кодека/Подсказка : XviD
Продолжительность : 1 ч. 34 м.
Битрейт : 1817 Кбит/сек
Ширина : 720 пикселей
Высота : 304 пикселя
Соотношение сторон : 2,35:1
Частота кадров : 25,000 кадров/сек
Цветовое пространство : YUV
Субдискретизация насыщенности : 4:2:0
Битовая глубина : 8 бит
Тип развёртки : Прогрессивная
Метод сжатия : С потерями
Бит/(Пиксели*Кадры) : 0.332
Размер потока : 1,20 Гбайт (82%)
Библиотека кодирования : XviD 73

Аудио #1
Идентификатор : 1
Формат : AC-3
Формат/Информация : Audio Coding 3
Коммерческое название : Dolby Digital
Идентификатор кодека : 2000
Продолжительность : 1 ч. 34 м.
Вид битрейта : Постоянный
Битрейт : 192 Кбит/сек
Каналы : 2 канала
Channel layout : L R
Частота : 48,0 КГц
Частота кадров : 31,250 кадров/сек (1536 SPF)
Битовая глубина : 16 бит
Метод сжатия : С потерями
Размер потока : 130 Мбайт (9%)
Выравнивание : Разделение по промежуткам
Продолжительность промежутка : 40 мс. (1,00 видеокадр)
Время предзагрузки промежутка : 500 мс.
ServiceKind/String : Complete Main

Аудио #2
Идентификатор : 2
Формат : AC-3
Формат/Информация : Audio Coding 3
Коммерческое название : Dolby Digital
Идентификатор кодека : 2000
Продолжительность : 1 ч. 34 м.
Вид битрейта : Постоянный
Битрейт : 192 Кбит/сек
Каналы : 2 канала
Channel layout : L R
Частота : 48,0 КГц
Частота кадров : 31,250 кадров/сек (1536 SPF)
Битовая глубина : 16 бит
Метод сжатия : С потерями
Размер потока : 130 Мбайт (9%)
Выравнивание : Разделение по промежуткам
Продолжительность промежутка : 40 мс. (1,00 видеокадр)
Время предзагрузки промежутка : 500 мс.
ServiceKind/String : Complete Main

скриншот   скриншот   скриншот   скриншот   скриншот  
pb.wtf



Скачать Язык-убийца через торрент https://i4.imageban.ru/out/2019/05/26/6591592ce3c1474d234f5537b2a45797.gif Скачать, смотреть онлайн Язык-убийца бесплантно в хорошем качестве Описание: Падение метеорита оказало влияние на всю округу. Героиня фильма Кэнди принимает сексапильный облик хорошенькой путаны. Но это ... 5 10 1
Торрент: Зарегистрирован [2019-05-25 22:10] · скачан: 9 раз
Статус: √ проверено
Размер: 1.47 GB
Как cкачать? Как скачать Язык-убийца через торрент | UTorrent

28-11-2019 20:33  

Отключить всю рекламу на сайте

    Дорогой пользователь! Огромная просьба, поблагодарите релизера, оцените раздачу и оставьте свои комментарий, если Вы скачали Язык-убийца через торрент бесплатно!
    Комментировать посты могут только пользователи прошедшие не сложную регистрацию
    Показать сообщения:    

    Язык-убийца через торрент
    Скачать бесплатно Язык-убийца
    Язык-убийца скачать торрент
    Язык-убийца смотреть онлайн
    Cкачать фильм Язык-убийца бесплатно
    Язык-убийца скачать торрент в хорошем качестве
    Язык-убийца смотреть онлайн бесплатно в хорошем качестве


    Вы не можете начинать темы
    Вы не можете отвечать на сообщения
    Вы не можете редактировать свои сообщения
    Вы не можете удалять свои сообщения
    Вы не можете голосовать в опросах
    Вы не можете прикреплять файлы к сообщениям
    Вы можете скачивать файлы