MEGA SALE -75% Borderlands 3 Super Deluxe всего за 550р. 180 руб. (супер цена). Внимание количество ограничено!!!

iTunes

1+1

iTunes

мы

iTunes

1

iTunes

Чернобыль

iTunes

Ральф против интернета

Лицензия

ПШазам

Лицензия

Игра престолов

Лицензия

30
pack

ВАЖНО

!!Акция!!

Alien_RageХит недели

RePack

Resident Evil 21

ИГРА 18+

pack

RePack

Metro:Exodus

!!Акция!!

Alien_Rage

RePack

fifa19

RePack

Assassins Creed: Odyssey

RePack

NEED FOR SPEED™ PAYBACK

3 сезон

9 сезон

Бесстыжие 9 сезон

Все сериалы

все сериалы на PB.wtf

RePack

FAR CRY 5
Ребята, катастрофически не хватает 1900р. для оплаты серверов за АВГУСТ (всвязи с блокировками трафик упал в 3 раза), 1-2р., выручайте.
  

Теория Большого Взрыва / The Big Bang Theory / Сезон: 12 / Серии: 1-24 из 24 (Марк Сендроуски) [2018, Ситком, комедия, WEB-DL 720p] VO [Кураж-Бамбей] pb.wtf

Теория Большого Взрыва через торрент pb.wtf

Раздают: 2 [ 90 KB/s ]
Размер: 17.05 GB | Добавлен: 4 мес. 20 д. назад | Торрент скачан:212 раз
Скачать  

29-10-2018 19:48 Теория Большого Взрыва Скачать торрент  

Теория Большого Взрыва / The Big Bang Theory
«Smart Is The New Sexy»
Страна: США
Год выпуска: 2018
Жанр: Ситком, комедия
Продолжительность: ~ 00:20:00 серия
Перевод: Профессиональный (одноголосый закадровый) |Кураж-Бамбей по заказу Paramount Comedy|
Субтитры: Eng
Премьера (мир): 24 сентября 2007
Премьера (РФ): 10 апреля 2010
Релиз на DVD 13 июня 2013, «CP Дистрибуция»

Режиссер: Марк Сендроуски, Энтони Джозеф Рич, Питер Чакос

В ролях:

Джонни Галэки, Джим Парсонс, Кейли Куоко, Саймон Хелберг, Кунал Найяр, Майем Биалик, Мелисса Рауш, Кэрол Энн Сьюзи, Кевин Суссман, Арти Манн, Брайан Джордж, Элис Эмтер, Сара Гилберт, Джон Росс Боуи, Уил Уитон, Лори Меткаф, Верни Уотсон-Джонсон, Кристин Барански, Джошуа Малина, Кейси Сэндер, Кэти Леклерк

Описание:

Леонард и Пенни стали супругами и переживают новый период отношений. Они узнают о помолвке Шелдон и Эми, которые устроили сложные испытания для определения лучшего друга для молодожёнов. Парочка остановилась на Леонарде, который знает, что угодить другу невозможно. Шелдон скрывает от друзей, что продолжает работать с военными и строит ракету. Леонард занимается исследованиями тёмной материи. События развиваются с необычайной скоростью. Компания Пенни хочет заключить контракт с Биллом Гейтсом, и приятели готовятся к встрече с компьютерным гением. Шелдон отправляется в лесную хижину к учёному Уолкотту, а потом уезжает в Вегас подзаработать денег. Идут дружные приготовления к свадьбе. Только у Эми с Шелдоном совсем другие планы.

rating

Качество: WEB-DL 720p
Формат: MKV

Видео: AVC at 4256 kbps, 1280 x 718 (1.783), 25.000 fps
Аудио Rus: AC-3, 48 kHz, 6 ch, 384 kbps |Кураж-Бамбей|
Аудио Eng: AC-3, 48 kHz, 6 ch, 384 kbps |Original|
Общее
Уникальный идентификатор : 245746772078674507243139947907752132913 (0xB8E11B513BE741CC10185D56CD6C0131)
Полное имя : E:\_Сериалы\_Сериалы\Теория большого взрыва\The.Big.Bang.Theory.S12.WEB-DL.720p.Rus.Eng\The.Big.Bang.Theory.S12E01.WEB-DL.720p.Rus.Eng.mkv
Формат : Matroska
Версия формата : Version 4 / Version 2
Размер файла : 707 Мбайт
Продолжительность : 19 м. 40 с.
Общий поток : 5026 Кбит/сек
Дата кодирования : UTC 2018-10-13 18:23:39
Программа кодирования : mkvmerge v27.0.0 ('Metropolis') 64-bit
Библиотека кодирования : libebml v1.3.6 + libmatroska v1.4.9

Видео
Идентификатор : 1
Формат : AVC
Формат/Информация : Advanced Video Codec
Профиль формата : High@L3.1
Настройки формата : 2 Ref Frames
Параметр CABAC формата : Нет
Параметр RefFrames формата : 2 кадра
Идентификатор кодека : V_MPEG4/ISO/AVC
Продолжительность : 19 м. 40 с.
Битрейт : 4256 Кбит/сек
Ширина : 1280 пикселей
Высота : 718 пикселей
Соотношение сторон : 16:9
Режим частоты кадров : Постоянный
Частота кадров : 25,000 кадров/сек
Цветовое пространство : YUV
Субдискретизация насыщенности : 4:2:0
Битовая глубина : 8 бит
Тип развёртки : Прогрессивная
Бит/(Пиксели*Кадры) : 0.185
Размер потока : 599 Мбайт (85%)
Заголовок : H.264
Default : Да
Forced : Нет
Цветовой диапазон : Limited
Основные цвета : BT.709
Характеристики трансфера : BT.709
Коэффициенты матрицы : BT.709

Аудио #1
Идентификатор : 2
Формат : AC-3
Формат/Информация : Audio Coding 3
Идентификатор кодека : A_AC3
Продолжительность : 19 м. 40 с.
Вид битрейта : Постоянный
Битрейт : 384 Кбит/сек
Каналы : 6 каналов
Расположение каналов : Front: L C R, Side: L R, LFE
Частота : 48,0 КГц
Частота кадров : 31,250 кадров/сек (1536 SPF)
Битовая глубина : 16 бит
Метод сжатия : С потерями
Размер потока : 54,0 Мбайт (8%)
Язык : Russian
ServiceKind/String : Complete Main
Default : Да
Forced : Нет

Аудио #2
Идентификатор : 3
Формат : AC-3
Формат/Информация : Audio Coding 3
Идентификатор кодека : A_AC3
Продолжительность : 19 м. 40 с.
Вид битрейта : Постоянный
Битрейт : 384 Кбит/сек
Каналы : 6 каналов
Расположение каналов : Front: L C R, Side: L R, LFE
Частота : 48,0 КГц
Частота кадров : 31,250 кадров/сек (1536 SPF)
Битовая глубина : 16 бит
Метод сжатия : С потерями
Размер потока : 54,0 Мбайт (8%)
Язык : English
ServiceKind/String : Complete Main
Default : Нет
Forced : Нет

Текст
Идентификатор : 4
Формат : UTF-8
Идентификатор кодека : S_TEXT/UTF8
Идентификатор кодека/Информация : UTF-8 Plain Text
Продолжительность : 19 м. 9 с.
Битрейт : 98 бит/сек
ElementCount : 403
Размер потока : 13,8 Кбайт (0%)
Язык : English
Default : Нет
Forced : Нет
Раздача ведётся путём добавления новых серий; при каждом добавлении создаётся новый торрент.
Чтобы начать докачку новой серии, пользователям необходимо сделать следующее:
1. остановить скачивание,
2. удалить старый торрент у себя из клиента (старые серии удалять не надо),
3. скачать новый торрент и запустить его у себя в клиенте вместо старого, при этом указать клиенту путь в старую папку, куда и должно происходить скачивание новых серий.

Ваш клиент при этом должен произвести хеширование (проверку) старой папки (если не производит сам - помогите ему сделать это), и будет докачивать только те серии которых у вас ещё нет. Старые серии при этом не удаляются, а продолжают раздаваться!

Eсли вы уже удалили старые серии, то предотвратить повторную закачку старых серий можно, отжав галочку в соответствующих местах при запуске нового торрента. По возможности, желательно не удалять старые серии как можно дольше, чтобы релизёр не столько продолжал раздавать старые серии, а смог сконцентрироваться на новых.

Совет для тех, кто не хочет ждать перехеширования:
Создайте ещё одну папку рядом с папкой сериала (рядом, а не в ней!!!). Каждую новую серию после удачной загрузки копируйте в новую папку так чтобы ваша основная папка всегда была пуста. Когда ваш новый торрент предложит вам закачать все файлы, выберете только последнюю. Для сидирования же укажите адрес новой папки.

Как закачать отдельный файл из торрента или докачать ранее пропущенные файлы торрента!
1. Открыть торрент
2. Снять галки с тех файлов торрента, которые мы не хотим закачивать. Оставляем только на нужных нам файлах (файле).
3. Нажать О.К.

В клиенте utorrent

Инструкция

1) Открыть торрент


2) Снять галки с тех файлов торрента, которые мы не хотим закачивать:

* либо вручную, снимая с каждого файла галку( скрин №1)
* либо, нажав кнопку "Снять метки (Select None)", сняв сразу со всех файлов(скрин №2)
№1

№2

Оставляем только на нужных нам файлах (файле).

3)Нажать О.К
Приятного просмотра!!!pb.wtf



Скачать Теория Большого Взрыва через торрент http://i80.fastpic.ru/big/2018/1012/02/c00f1007ca407bd98a88714426b80a02.png Скачать фильм Теория Большого Взрыва через торрент бесплантно в хорошем качестве Описание:Леонард и Пенни стали супругами и переживают новый период отношений. Они узнают о помолвке Шелдон и Эми, которые устроили сложные ... 10 10 16
Info! Золотая раздача, скачанное не засчитывается.
Торрент: Зарегистрирован [2019-05-25 20:36] · скачан: 212 раз
Статус: √ проверено
Размер: 17.05 GB
Как cкачать? Как скачать Теория Большого Взрыва через торрент | qTorrent

% Раздел Тема Автор DL S | L
Теория большого взрыва [ 43.7 GB ] Теория большого взрыва / The Big Bang Theory / Сезон: 12 / Серии: 1-24 из 24 [2018-2019 Мело WEB-DL 1080p] VO [Кураж-Бамбей] bober100 Скачать
1 | 0
Теория большого взрыва [ 7.57 GB ] Теория большого взрыва / The Big Bang Theory / Сезон: 8 / Серии: 1-12 из 24 [2014 WEB-DL 720p] DVO + Original + Sub Rus + Sub Eng Assasinca Скачать
1 | 0


>> Регистрируемся здесь <<






Отзывы и комментарии о схеме читаем и пишем здесь: ---> Отзывы и комментарии о схеме

Новые благодарочки в телеграм довольных пользователей:
скриншот   скриншот   скриншот   скриншот   скриншот

25-05-2019 23:21 Теория Большого Взрыва Скачать торрент  

Вот и всё((pb.wtf



    Дорогой пользователь! Огромная просьба, поблагодарите релизера, оцените раздачу и оставьте свои комментарий, если Вы скачали Теория Большого Взрыва через торрент бесплатно! Внесите свою лепту в развитие PiratBit!
    Комментировать посты могут только пользователи прошедшие не сложную регистрацию
    Показать сообщения:    

    Теория Большого Взрыва через торрент
    Скачать бесплатно Теория Большого Взрыва
    Теория Большого Взрыва скачать торрент
    Теория Большого Взрыва смотреть онлайн
    Cкачать фильм Теория Большого Взрыва бесплатно
    Теория Большого Взрыва скачать торрент в хорошем качестве
    Теория Большого Взрыва смотреть онлайн бесплатно в хорошем качестве


    Вы не можете начинать темы
    Вы не можете отвечать на сообщения
    Вы не можете редактировать свои сообщения
    Вы не можете удалять свои сообщения
    Вы не можете голосовать в опросах
    Вы не можете прикреплять файлы к сообщениям
    Вы можете скачивать файлы