Мега распродажа FORZA HORIZON 4 ULTIMATE+ВСЕ DLC+ОНЛАЙН всего за 499р. 349 руб. (супер цена). Внимание количество ограничено!!!

iTunes

1+1

iTunes

мы

iTunes

1

1 сезон

Чернобыль

1 сезон

Ральф против интернета

Лицензия

ПШазам

8 сезон

Игра престолов

Лицензия

30
pack

ВАЖНО

!!Акция!!

Alien_RageХит недели

RePack

Resident Evil 21

ИГРА 18+

pack

RePack

Metro:Exodus

!!Акция!!

Alien_Rage

RePack

fifa19

RePack

Assassins Creed: Odyssey

RePack

NEED FOR SPEED™ PAYBACK

3 сезон

9 сезон

Бесстыжие 9 сезон

Все сериалы

все сериалы на PB.wtf

RePack

FAR CRY 5
Ребята, катастрофически не хватает 2730р. для оплаты серверов за ИЮНЬ (всвязи с блокировками трафик упал в 3 раза), 1-2р., выручайте.
  

Сверхъестественное / Supernatural / Сезон: 2 / Серии 1-12 из 22 (Эрик Крипке) [2006 г., ужасы, фэнтези, триллер, драма, детектив, BDRip] DUB [Рен-ТВ] pb.wtf

Сверхъестественное через торрент pb.wtf

Размер: 7.04 GB | Добавлен: 1 мес. 21 д. назад | Торрент скачан:0 раз
Скачать  

27-04-2019 09:38 Сверхъестественное Скачать торрент  

Сверхъестественное / Supernatural /
Сезон: 2 / Серии 1-12 из 22
Год выпуска: 2006
Страна: США
Жанр: ужасы, фэнтези, триллер, драма, детектив
Продолжительность: 00:42:00 серия
Перевод: Дубляж (Рен-ТВ)
Субтитры: отсутствуют

Режиссер: Эрик Крипке

Премьера в мире: 13 сентября 2005

rating

В ролях: Джаред Падалеки, Дженсен Эклс, Джеффри Дин Морган, Джим Бивер, Линда Блэр, Саманта Феррис, Чед Линдберг, Алона Таль, Фредрик Лене, Стерлинг К. Браун, Линдси Маккеон и др.

Описание: Сериал рассказывает о приключениях братьев Сэма и Дина Винчестеров, которые путешествуют по Соединённым Штатам на чёрном автомобиле Chevrolet Impala 1967 года, расследуют паранормальные явления, многие из которых основаны на американских городских легендах и фольклоре, и сражаются с порождениями зла, такими как демоны и призраки.

Качество: BDRip
Формат: AVI
Видео кодек: XviD
Аудио кодек: AC3
Видео: XviD, 720х400 (16:9), ~1789 kbps, 0.259 bit/pixel
Аудио#1: Русский: AC3, 2 ch, 192 kbps - Дубляж (Рен-ТВ)
Релиз от: winchester00100010
Эпизод 1. Когда придет мой смертный час / In My Time of Dying
Эпизод 2. Все любят клоуна / Everybody Loves a Clown
Эпизод 3. Жажда крови / Bloodlust
Эпизод 4. Трупы детям не игрушки / Children Shouldn't Play with Dead Things
Эпизод 5. Саймон говорит... / Simon Said
Эпизод 6. Выхода нет / No Exit
Эпизод 7. Обычные подозреваемые / The Usual Suspects
Эпизод 8. Блюз на перекрёстке / Crossroad Blues
Эпизод 9. Кроатон / Croatoan
Эпизод 10. Жертва / Hunted
Эпизод 11. Игрушки / Playthings
Эпизод 12. Ночной оборотень / Night Shifter

Общее
Полное имя : D:\МОИ РАЗДАЧИ ФИЛЬМЫ И СЕРИАЛЫ\Supernatural.S02.2006-2007.BDRip\Supernatural.S02E01.BDRip.avi
Формат : AVI
Формат/Информация : Audio Video Interleave
Размер файла : 600 Мбайт
Продолжительность : 42 м. 10 с.
Общий поток : 1990 Кбит/сек
Программа кодирования : VirtualDubMod 1.5.10.3 | www.virtualdub-fr.org || (build 2550/release)
Библиотека кодирования : VirtualDubMod build 2550/release

Видео
Идентификатор : 0
Формат : MPEG-4 Visual
Профиль формата : Advanced Simple@L5
Настройки формата : BVOP1 / Custom Matrix
Параметр BVOP формата : 1
Параметр QPel формата : Нет
Параметр GMC формата : Без точки перехода
Параметр матрицы формата : Выборочная
Идентификатор кодека : XVID
Идентификатор кодека/Подсказка : XviD
Продолжительность : 42 м. 10 с.
Битрейт : 1789 Кбит/сек
Ширина : 720 пикселей
Высота : 400 пикселей
Соотношение сторон : 16:9
Частота кадров : 23,976 (24000/1001) кадра/сек
Частота кадров в оригинале : 23,976 (23976/1000) кадра/сек
Цветовое пространство : YUV
Субдискретизация насыщенности : 4:2:0
Битовая глубина : 8 бит
Тип развёртки : Прогрессивная
Метод сжатия : С потерями
Бит/(Пиксели*Кадры) : 0.259
Размер потока : 539 Мбайт (90%)
Библиотека кодирования : XviD 73

Аудио
Идентификатор : 1
Формат : AC-3
Формат/Информация : Audio Coding 3
Коммерческое название : Dolby Digital
Идентификатор кодека : 2000
Продолжительность : 42 м. 10 с.
Вид битрейта : Постоянный
Битрейт : 192 Кбит/сек
Каналы : 2 канала
Channel layout : L R
Частота : 48,0 КГц
Частота кадров : 31,250 кадров/сек (1536 SPF)
Битовая глубина : 16 бит
Метод сжатия : С потерями
Размер потока : 57,9 Мбайт (10%)
Выравнивание : Разделение по промежуткам
Продолжительность промежутка : 42 мс. (1,00 видеокадр)
Время предзагрузки промежутка : 500 мс.
ServiceKind/String : Complete Main

Внимание! Раздача ведётся путём добавления новых серий; при каждом добавлении создаётся новый торрент. Чтобы начать докачку новой серии, пользователям необходимо сделать следующее:
(1) остановить скачивание,
(2) удалить старый торрент у себя из клиента (старые серии удалять не надо),
(3) скачать новый торрент и запустить его у себя в клиенте вместо старого, при этом указать клиенту путь в старую папку куда и должно происходить скачивание новых серий.
Ваш клиент при этом должен произвести хеширование (проверку) старой папки (если не производит сам - помогите ему сделать это), и будет докачивать только те серии которых у вас ещё нет. Старые серии при этом не удаляются, а продолжают раздаваться!
Eсли вы уже удалили старые серии, то предотвратить повторную закачку старых серий можно, отжав галочку в соответсвующих местах при запуске нового торрента. По возможности, желательно не удалять старые серии как можно дольше чтобы релизёр не столько продолжал раздавать старые серии, а смог сконцентрироваться на новых.

pb.wtf



Скачать Сверхъестественное через торрент http://pic1.kartinco.top/images/11/5gvy9.jpg Скачать фильм Сверхъестественное через торрент бесплантно в хорошем качестве Описание: Сериал рассказывает о приключениях братьев Сэма и Дина Винчестеров, которые путешествуют по Соединённым Штатам на чёрном ... 10 10 2
Торрент: Зарегистрирован [2019-05-30 13:39] · скачан: 0 раз
Статус: √ проверено
Размер: 7.04 GB
Как cкачать? Как скачать Сверхъестественное через торрент | qTorrent



Последний раз редактировалось: winchester00100010 (2019-05-29 16:34), всего редактировалось 1 раз


>> Регистрируемся здесь <<






Отзывы и комментарии о схеме читаем и пишем здесь: ---> Отзывы и комментарии о схеме

Новые благодарочки в телеграм довольных пользователей:
скриншот   скриншот   скриншот   скриншот   скриншот

30-05-2019 13:40 Сверхъестественное Скачать торрент  

Торрент файл обновлен, добавлена 12-я серия, перекачайте торрент)pb.wtf



30-05-2019 15:03 Сверхъестественное Скачать торрент  

О_о ... 2й сезон и 12 из 22 серий ?! Он же вышел в прошлом веке почти ) . Куда серии потерял ?!pb.wtf



    Дорогой пользователь! Огромная просьба, поблагодарите релизера, оцените раздачу и оставьте свои комментарий, если Вы скачали Сверхъестественное через торрент бесплатно! Внесите свою лепту в развитие PiratBit!
    Комментировать посты могут только пользователи прошедшие не сложную регистрацию
    Показать сообщения:    

    Сверхъестественное через торрент
    Скачать бесплатно Сверхъестественное
    Сверхъестественное скачать торрент
    Сверхъестественное смотреть онлайн
    Cкачать фильм Сверхъестественное бесплатно
    Сверхъестественное скачать торрент в хорошем качестве
    Сверхъестественное смотреть онлайн бесплатно в хорошем качестве


    Вы не можете начинать темы
    Вы можете отвечать на сообщения
    Вы не можете редактировать свои сообщения
    Вы не можете удалять свои сообщения
    Вы не можете голосовать в опросах
    Вы не можете прикреплять файлы к сообщениям
    Вы можете скачивать файлы