Ссылка на приватное зеркало нашего сайта всего за 1$. Внимание количество ограничено!!!

2 сезон

iTunes

1 сезон

1

iTunes

iTunes

iTunes

1 сезон

RePack

30

ИГРА 18+

pack

ВАЖНО

!!Акция!!

Alien_RageХит недели

RePack

MK11
pack

Забери бонус

RePack

jed

!!Акция!!

Alien_Rage

RePack

fifa19

RePack

Assassins Creed: Odyssey

RePack

NEED FOR SPEED™ PAYBACK

4 сезон

9 сезон

Бесстыжие 9 сезон

Все сериалы

все сериалы на PB.wtf

RePack

FAR CRY 5
  

ДаГрам / DaGram (Уил Льюис) [2018, комедия, WEB-DL 720p] MVO ["Синема УС"] pb.wtf

ДаГрам через торрент pb.wtf

Размер: 3.02 GB | Добавлен: 1 год 4 мес. назад | Торрент скачан:11 раз
Скачать  

31-05-2019 13:12 ДаГрам Скачать торрент  

ДаГрам / DaGramГод выпуска: 2018
Страна: США
Жанр: комедия
Продолжительность: 01:16:34
Перевод: Любительский (многоголосый) | "Синема УС"
Субтитры: отсутствуют
Субтитры: отсутствуют

Режиссер: Уил Льюис

rating

В ролях: Джош Адамс, Дафник Спрингс, Эбони Тейтс

Описание: Увлечение социальными сетями до добра не доводит, и И теперь знает, почему.

Качество: WEB-DL 720p
Формат: MKV
Видео: h.264, 5 257 Кбит/с, 1280x720
Аудио#1: Русский, (AC3, 2 ch, 384 Кбит/с)
скриншот  скриншот  скриншот  

Общее
Уникальный идентификатор : 210914922530561486670577876752482951962 (0x9EACBC8B64AC3A7BBC5C0D01982BE31A)
Полное имя : D:\Dagram.2018.P.WEB-DL.72Op.mkv
Формат : Matroska
Версия формата : Version 2
Размер файла : 3,02 Гбайт
Продолжительность : 1 ч. 16 м.
Режим общего битрейта : Переменный
Общий поток : 5643 Кбит/сек
Дата кодирования : UTC 2019-05-26 04:41:12
Программа кодирования : mkvmerge v8.3.0 ('Over the Horizon') 64bit
Библиотека кодирования : libebml v1.3.1 + libmatroska v1.4.2

Видео
Идентификатор : 1
Формат : AVC
Формат/Информация : Advanced Video Codec
Профиль формата : High@L4.1
Параметр CABAC формата : Да
Параметр RefFrames формата : 4 кадра
Идентификатор кодека : V_MPEG4/ISO/AVC
Продолжительность : 1 ч. 16 м.
Вид битрейта : Переменный
Битрейт : 5257 Кбит/сек
Максимальный битрейт : 6000 Кбит/сек
Ширина : 1280 пикселей
Высота : 720 пикселей
Соотношение сторон : 16:9
Режим частоты кадров : Постоянный
Частота кадров : 23,976 (24000/1001) кадра/сек
Стандарт вещания : Component
Цветовое пространство : YUV
Субдискретизация насыщенности : 4:2:0
Битовая глубина : 8 бит
Тип развёртки : Прогрессивная
Бит/(Пиксели*Кадры) : 0.233
Размер потока : 2,75 Гбайт (91%)
Default : Да
Forced : Нет
Цветовой диапазон : Limited
Основные цвета : BT.709
Характеристики трансфера : BT.709
Коэффициенты матрицы : BT.709

Аудио
Идентификатор : 2
Формат : AC-3
Формат/Информация : Audio Coding 3
Расширение режима : CM (complete main)
Параметр Endianness формата : Big
Идентификатор кодека : A_AC3
Продолжительность : 1 ч. 16 м.
Вид битрейта : Постоянный
Битрейт : 384 Кбит/сек
Каналы : 2 канала
Расположение каналов : Front: L R
Частота : 48,0 КГц
Частота кадров : 31,250 кадров/сек (1536 spf)
Метод сжатия : С потерями
Размер потока : 210 Мбайт (7%)
Default : Да
Forced : Нет

pb.wtf



Скачать ДаГрам через торрент https://a.radikal.ru/a43/1905/4c/bdbd81cb9eec.jpg Скачать фильм ДаГрам через торрент бесплантно в хорошем качестве Описание: Увлечение социальными сетями до добра не доводит, и И теперь знает, ... 10 10 3
Торрент: Зарегистрирован [2019-05-31 13:12] · скачан: 11 раз
Статус: T временная
Размер: 3.02 GB
Как cкачать? Как скачать ДаГрам через торрент | qTorrent

% Раздел Тема Автор DL S | L
T Фильмы (мультфильмы) cо спонсором показа (Новинки AVI/MKV) [ 1.37 GB ] ДаГрам / DaGram [2018 WEB-DLRip] MVO ["Синема УС"] bober100 Скачать
1 | 0

28-11-2019 20:33  

Отключить всю рекламу на сайте

    Дорогой пользователь! Огромная просьба, поблагодарите релизера, оцените раздачу и оставьте свои комментарий, если Вы скачали ДаГрам через торрент бесплатно! Внесите свою лепту в развитие PiratBit!
    Комментировать посты могут только пользователи прошедшие не сложную регистрацию
    Показать сообщения:    

    ДаГрам через торрент
    Скачать бесплатно ДаГрам
    ДаГрам скачать торрент
    ДаГрам смотреть онлайн
    Cкачать фильм ДаГрам бесплатно
    ДаГрам скачать торрент в хорошем качестве
    ДаГрам смотреть онлайн бесплатно в хорошем качестве


    Вы не можете начинать темы
    Вы не можете отвечать на сообщения
    Вы не можете редактировать свои сообщения
    Вы не можете удалять свои сообщения
    Вы не можете голосовать в опросах
    Вы не можете прикреплять файлы к сообщениям
    Вы можете скачивать файлы