Доктор Стрэндж

Лицензия

Добыча

Дубляж

Дом дракона

1 сезон

Тор

Дубляж

В эфире

Дубляж

Там, где раки поют

MVO

Властелин колец

1 сезон

Deluxe

pack

Рекомендуем

30

Пиратка

ВАЖНО

ВАЖНО

Ghostwire

Пиратка

jed

RePack

nioh2

RePack

RDR2

RePack

NEED FOR SPEED™ PAYBACK

RePack

скачать торрент

Кинопоиск HD

Острые козырьки 6 сезон

6 сезон

FAR CRY 6

RePack

скачать торрент

Лицензия

скачать торрент

MVO

1

1 сезон

скачать торрент

1 сезон

скачать торрент

Лицензия

  

Капитан Марвел / Captain Marvel (Анна Боден, Райан Флек) [2019, фантастика, боевик, приключения, UHD BDRemux 2160p] Дубляж [iTunes]

Капитан Марвел через торрент pb.wtf

Размер: 45.51 GB | Добавлен: 3 года 6 мес. назад | Торрент скачан:214 раз
Смотреть онлайн | Скачать   

02-06-2019 05:01 Капитан Марвел Скачать торрент  


Год выпуска: 2019
Страна: США
Жанр: фантастика, боевик, приключения
Продолжительность: 02:03:42
Перевод: Дублированный | iTunes
Субтитры: Русские (Forced, full, SDH), английские

Режиссер: Анна Боден, Райан Флек

rating

В ролях:

Бри Ларсон (Carol Danvers / Vers / Captain Marvel), Сэмюэл Л. Джексон (Nick Fury), Бен Мендельсон (Talos / Keller), Джуд Лоу (Yon-Rogg), Аннетт Бенинг (Supreme Intelligence / Dr. Wendy Lawson), Лашана Линч (Maria Rambeau), Кларк Грегг (Agent Coulson), Рюн Темт (Bron-Char), Джемма Чан (Minn-Erva), Альхенис Перес Сото (Att-Lass), Джимон Хонсу (Korath), Ли Пейс (Ronan)
Описание:

После столкновения с враждующими инопланетными расами пилот военно-воздушных сил Кэрол Дэнверс обретает суперсилу и становится неуязвимой. Героине предстоит совладать со своими новыми способностями, чтобы противостоять могущественному врагу.

Качество: UHD BDRemux 2160p
Формат: MKV

Видео: MPEG-H HEVC HDR Video, 3840x2160, 47000 Kbit/s, 23.976 fps
Аудио#1: 48 kHz, AC3, 5.1, 384 Kbps | iTunes | RUS |
Аудио #2: 48 kHz, TrueHD, 7.1, 4613 Kbps | Оригинал | ENG |
Аудио#3: 48 kHz, AC3, 5.1, 640 Kbps | Оригинал | ENG |
скриншот  скриншот  скриншот  скриншот  скриншот  

General
Unique ID : 322115849916810927698060653120027494473 (0xF255418F38FACAB21CF820524FCA0849)
Complete name : D:Video111Captain.Marvel.2019.UHD.BDREMUX.2160p.HDR.seleZen.mkv
Format : Matroska
Format version : Version 4
File size : 45.5 GiB
Duration : 2 h 3 min
Overall bit rate mode : Variable
Overall bit rate : 52.7 Mb/s
Movie name : Captain Marvel 4K 2019 from селезень
Encoded date : UTC 2019-06-02 03:14:13
Writing application : mkvmerge v33.1.0 ('Primrose') 64-bit
Writing library : libebml v1.3.7 + libmatroska v1.5.0

Video
ID : 1
Format : HEVC
Format/Info : High Efficiency Video Coding
Format profile : Main [email protected]@High
HDR format : SMPTE ST 2086, HDR10 compatible
Codec ID : V_MPEGH/ISO/HEVC
Duration : 2 h 3 min
Bit rate : 47.0 Mb/s
Width : 3 840 pixels
Height : 2 160 pixels
Display aspect ratio : 16:9
Frame rate mode : Constant
Frame rate : 23.976 (24000/1001) FPS
Color space : YUV
Chroma subsampling : 4:2:0 (Type 2)
Bit depth : 10 bits
Bits/(Pixel*Frame) : 0.236
Stream size : 40.6 GiB (89%)
Writing library : ATEME Titan File 3.9.0 (4.9.0.0)
Language : English
Default : Yes
Forced : No
Color range : Limited
Color primaries : BT.2020
Transfer characteristics : PQ
Matrix coefficients : BT.2020 non-constant
Mastering display color pri : Display P3
Mastering display luminance : min: 0.0020 cd/m2, max: 1000 cd/m2

Audio #1
ID : 2
Format : AC-3
Format/Info : Audio Coding 3
Commercial name : Dolby Digital
Codec ID : A_AC3
Duration : 2 h 3 min
Bit rate mode : Constant
Bit rate : 384 kb/s
Channel(s) : 6 channels
Channel layout : L R C LFE Ls Rs
Sampling rate : 48.0 kHz
Frame rate : 31.250 FPS (1536 SPF)
Bit depth : 16 bits
Compression mode : Lossy
Stream size : 340 MiB (1%)
Title : iTunes
Language : Russian
Service kind : Complete Main
Default : Yes
Forced : Yes

Audio #2
ID : 3
Format : MLP FBA 16-ch
Format/Info : Meridian Lossless Packing FBA with 16-channel presentation
Commercial name : Dolby TrueHD with Dolby Atmos
Codec ID : A_TRUEHD
Duration : 2 h 3 min
Bit rate mode : Variable
Bit rate : 4 613 kb/s
Maximum bit rate : 7 317 kb/s
Channel(s) : 8 channels
Channel layout : L R C LFE Ls Rs Lb Rb
Sampling rate : 48.0 kHz
Frame rate : 1 200.000 FPS (40 SPF)
Compression mode : Lossless
Stream size : 3.99 GiB (9%)
Title : Original
Language : English
Default : No
Forced : No
Number of dynamic objects : 13
Bed channel count : 1 channel
Bed channel configuration : LFE

Audio #3
ID : 4
Format : AC-3
Format/Info : Audio Coding 3
Commercial name : Dolby Digital
Codec ID : A_AC3
Duration : 2 h 3 min
Bit rate mode : Constant
Bit rate : 640 kb/s
Channel(s) : 6 channels
Channel layout : L R C LFE Ls Rs
Sampling rate : 48.0 kHz
Frame rate : 31.250 FPS (1536 SPF)
Bit depth : 16 bits
Compression mode : Lossy
Stream size : 566 MiB (1%)
Language : English
Service kind : Complete Main
Default : No
Forced : No

Text #1
ID : 5
Format : UTF-8
Codec ID : S_TEXT/UTF8
Codec ID/Info : UTF-8 Plain Text
Duration : 1 h 55 min
Bit rate : 1 b/s
Count of elements : 17
Stream size : 937 Bytes (0%)
Title : Forced
Language : Russian
Default : Yes
Forced : Yes

Text #2
ID : 6
Format : UTF-8
Codec ID : S_TEXT/UTF8
Codec ID/Info : UTF-8 Plain Text
Duration : 2 h 2 min
Bit rate : 65 b/s
Count of elements : 1314
Stream size : 58.8 KiB (0%)
Title : Full
Language : Russian
Default : No
Forced : No

Text #3
ID : 7
Format : UTF-8
Codec ID : S_TEXT/UTF8
Codec ID/Info : UTF-8 Plain Text
Duration : 2 h 2 min
Bit rate : 77 b/s
Count of elements : 1637
Stream size : 69.2 KiB (0%)
Title : SDH
Language : Russian
Default : No
Forced : No

Text #4
ID : 8
Format : UTF-8
Codec ID : S_TEXT/UTF8
Codec ID/Info : UTF-8 Plain Text
Duration : 1 h 53 min
Bit rate : 47 b/s
Count of elements : 1422
Stream size : 39.6 KiB (0%)
Title : Full
Language : English
Default : No
Forced : No

Text #5
ID : 9
Format : UTF-8
Codec ID : S_TEXT/UTF8
Codec ID/Info : UTF-8 Plain Text
Duration : 2 h 2 min
Bit rate : 50 b/s
Count of elements : 1668
Stream size : 45.1 KiB (0%)
Title : SDH
Language : English
Default : No
Forced : No

Text #6
ID : 10
Format : UTF-8
Codec ID : S_TEXT/UTF8
Codec ID/Info : UTF-8 Plain Text
Duration : 2 h 2 min
Bit rate : 67 b/s
Count of elements : 1665
Stream size : 60.9 KiB (0%)
Title : SDH Colored
Language : English
Default : No
Forced : No

Menu
00:00:00.000 : en:"Dreams Again"
00:06:51.286 : en:Search And Rescue
00:14:07.055 : en:Memory Manipulation
00:23:17.438 : en:Planet C-53
00:29:37.192 : en:Subway Skrull
00:35:06.938 : en:Searching For Answers
00:44:07.603 : en:Project P.E.G.A.S.U.S.
00:50:42.665 : en:Backup Arrives
00:56:17.791 : en:Reunited
01:03:01.987 : en:Revelation
01:11:16.564 : en:"You Are Carol Danvers"
01:17:48.330 : en:Skrull Survivors
01:27:02.217 : en:"Finally Set Free"
01:33:21.596 : en:Starforce Battle
01:40:50.962 : en:Ronan's Offensive
01:46:24.253 : en:Taking The Initiative
01:52:49.054 : en:End Credits




Скачать Капитан Марвел через торрент https://i109.fastpic.ru/big/2019/0530/32/01e0eb59d672040a7f4c0011badba532.png Скачать, смотреть онлайн Капитан Марвел бесплантно в хорошем качестве Описание: После столкновения с враждующими инопланетными расами пилот военно-воздушных сил Кэрол Дэнверс обретает суперсилу и становится ... 10 10 15
Info! Золотая раздача, скачанное не засчитывается.
Торрент: Зарегистрирован [2019-06-02 05:01] · скачан: 214 раз
Статус: √ проверено
Размер: 45.51 GB
Как cкачать? Как скачать Капитан Марвел через торрент | UTorrent

% Раздел Тема Автор DL S | L
3D Видео (48-60 fps) [ 4.32 GB ] Капитан Марвел в 3D / Captain Marvel in 3D | Лицензия | 720p / 60 FPS Лицензия slaventi-69 Скачать
1 | 0
3D Фильмы [ 8.17 GB ] Капитан Марвел в 3D / Captain Marvel in 3D | Лицензия | 1080p, Дубляж Лицензия slaventi-69 Скачать
1 | 0
Фильмы (HD 720p, 1080p) (48-60 fps) [ 5.1 GB ] Капитан Марвел / Captain Marvel | Дубляж | DLRip 720p / 60 FPS slaventi-69 Скачать
5 | 0
Фильмы 2019-2020 [DVDrip, WEB-DLRip, HDrip] (DUB, MVO) [ 2.27 GB ] Капитан Марвел / Captain Marvel | MVO | BDRip-AVC, Dub, MVO morfyi Скачать
3 | 0
Фильмы 2019-2020 [DVDrip, WEB-DLRip, HDrip] (DUB, MVO) [ 2.18 GB ] Капитан Марвел / Captain Marvel | Лицензия | BDRip Twi7ter Скачать
16 | 3
Фильмы 2019-2020 [DVDrip, WEB-DLRip, HDrip] (DUB, MVO) [ 1.45 GB ] Капитан Марвел / Captain Marvel | | DLRip killermax2013 Скачать
2 | 0
Фильмы (Blu-ray, BD-Remux, HDDVD) [ 40.51 GB ] Капитан Марвел / Captain Marvel | Лицензия | 1080p sheker187 Скачать
1 | 0

28-11-2019 20:33  


Отключить вcю реклaмy на сайте, в т.ч. и в плеере онлайн просмотра!

03-06-2019 17:41 Капитан Марвел Скачать торрент  

скажите пожалуйста почему картинка в 4к тусклее (темнее чем в 1080р ) монитор с разрешением 1080, проектор с разрешением 1080 тоже самое картинка тускнее...

причем это касается всех релизов с разрешением 4к ...

1080р






04-06-2019 05:15 Капитан Марвел Скачать торрент  

да потому что тру 4К-это тестовые ролики с попугаями и пейзажиками в торговом зале магазинов,торгующих телевизорами.Всё остальное-тупой развод не менее тупых лохов(я-там же) на деньги и гигабайты места на диске.Сколько ни качал эти фильмы в"4К",каких только размеров,как только не игрался настройками своего 4К HDR-телевизора LG-вот как то не увидел какого то уж прямо пипец различия картинки с FHD.Уж с попугаями и видами Доминиканы точно и рядом эти фильмы не лежали.Так что спокойно-нас всех в очередной раз отымели маркетологи(вспомните 3D,практически почивший с миром) сейчас рекламируют т.н.8К-ржу в голос....



04-06-2019 18:06 Капитан Марвел Скачать торрент  

utbrock писал(а):

utbrock

возможно потому, что для задействования полного хдр, при наличии оного, как и самого полноценного 4К необходимо подключение к соответствующим слотам, забыл как они называются, но в инструкциях к современным 4К плеерам сие особо оговаривается
слоты полноценно поддерживающие стали ставить не так давно, а до тех пор ставили вот этот слот особо именованный
посмотрите на панели ТВ, если он действительно ХДРный, то там один слот должен иметь название отличающееся от остальных
скачайте инструкцию к 4К плееру какому-нить в разделе подключений

хотя и сильно недоумеваю, какой смысл смотреть на 1080 4к...



    Дорогой пользователь! Огромная просьба, поблагодарите релизера, оцените раздачу и оставьте свои комментарий, если Вы скачали Капитан Марвел через торрент бесплатно!!
    Комментировать посты могут только пользователи прошедшие не сложную регистрацию
    Показать сообщения:    


    Капитан Марвел через торрент
    Скачать бесплатно Капитан Марвел
    Капитан Марвел скачать торрент
    Капитан Марвел смотреть онлайн
    Cкачать фильм Капитан Марвел бесплатно
    Капитан Марвел скачать торрент в хорошем качестве
    Капитан Марвел смотреть онлайн бесплатно в хорошем качестве
    Вы не можете начинать темы
    Вы не можете отвечать на сообщения
    Вы не можете редактировать свои сообщения
    Вы не можете удалять свои сообщения
    Вы не можете голосовать в опросах
    Вы не можете прикреплять файлы к сообщениям
    Вы можете скачивать файлы
    Капитан Марвел / Captain Marvel [2019, фантастика, боевик, приключения, UHD BDRemux 2160p] Дубляж [iTunes] смотреть онлайн, скачать торрент picoco.icu