Мега распродажа FORZA HORIZON 4 ULTIMATE+ВСЕ DLC+ОНЛАЙН всего за 499р. 349 руб. (супер цена). Внимание количество ограничено!!!

iTunes

1+1

iTunes

мы

iTunes

1

1 сезон

Чернобыль

1 сезон

Ральф против интернета

Лицензия

ПШазам

8 сезон

Игра престолов

Лицензия

30
pack

ВАЖНО

!!Акция!!

Alien_RageХит недели

RePack

Resident Evil 21

ИГРА 18+

pack

RePack

Metro:Exodus

!!Акция!!

Alien_Rage

RePack

fifa19

RePack

Assassins Creed: Odyssey

RePack

NEED FOR SPEED™ PAYBACK

3 сезон

9 сезон

Бесстыжие 9 сезон

Все сериалы

все сериалы на PB.wtf

RePack

FAR CRY 5
Ребята, катастрофически не хватает 2730р. для оплаты серверов за ИЮНЬ (всвязи с блокировками трафик упал в 3 раза), 1-2р., выручайте.
  

Игры разумов / The Professor and the Madman (Фарад Сафиниа) [2019, Триллер, драма, детектив, биография, BDRip-AVC] DUB [iTunes],MVO [HDRezka Studio] - ExKinoRay pb.wtf

Игры разумов через торрент pb.wtf

Раздают: 56 [ 150 KB/s ] Качают: 1 [ 501 KB/s ]
Размер: 2.35 GB | Добавлен: 1 мес. 5 д. назад | Торрент скачан:144 раза
Скачать  

13-06-2019 03:32 Игры разумов Скачать торрент  

Название: Игры разумов
Оригинальное название: The Professor and the Madman
Год выпуска: 2019
Жанр: Триллер, драма, детектив, биография
Режиссер: Фарад Сафиниа
В ролях: Мэл Гибсон, Шон Пенн, Натали Дормер, Джереми Ирвин, Дженнифер Или, Стив Кугэн, Стивен Диллэйн, Эдди Марсан, Йоан Гриффит, Лоуренс Фокс

Описание: Англия середины XIX века. Оксфордский профессор Джеймс Мюррей работает над первым в истории словарем английского языка, а его главным соратником становится заключенный психиатрической клиники для особо опасных преступников - доктор Уильям Майнор. Гений Майнор или сумасшедший, хитроумный преступник, ведущий дерзкую игру, чтобы вырваться на свободу, или одержимый ученый? И кто тогда Мюррей: верный друг, жертва манипуляции или организатор сговора?



Выпущено: Ирландия, Fastnet Films, 22h22, Caviar Antwerp NV
Продолжительность: 02:04:41
Перевод: Дублированный | iTunes
Профессиональный (многоголосый, закадровый) | HDRezka Studio

БЕЗ КАКОЙ-ЛИБО РЕКЛАМЫ!

Формат: MKV
Качество: BDRip-AVC
Видео: MPEG-4 AVC, 1024x428 (2.40:1), 23.976 fps, 1674 Kbps, 0.159 bit/pixel
Аудио #01: 48 kHz, AC3, 5.1, 384 Kbps | iTunes | RUS |
Аудио #02: 48 kHz, AC3, 2.0, 192 Kbps | HDRezka Studio | RUS |
Аудио #03: 48 kHz, AC3, 5.1, 448 Kbps | Оригинал | ENG |
Субтитры: Русские (Full), английские
General
Unique ID : 217141420993077103844834304589018890594 (0xA35BEA9ECF2861B68AF7AB9F3C030162)
Complete name : D:\The.Professor.and.the.Madman.2019.BDRip.AVC.ExKinoRay.mkv
Format : Matroska
Format version : Version 2
File size : 2.35 GiB
Duration : 2 h 4 min
Overall bit rate : 2 697 kb/s
Movie name : The Professor and the Madman 2019 from ExKinoRay
Encoded date : UTC 2019-06-13 01:58:39
Writing application : mkvmerge v5.6.0 ('Kenya Kane') built on May 27 2012 16:44:04
Writing library : libebml v1.2.3 + libmatroska v1.3.0

Video
ID : 1
Format : AVC
Format/Info : Advanced Video Codec
Format profile : High@L4.1
Format settings, CABAC : Yes
Format settings, ReFrames : 11 frames
Codec ID : V_MPEG4/ISO/AVC
Duration : 2 h 4 min
Bit rate : 1 674 kb/s
Width : 1 024 pixels
Height : 428 pixels
Display aspect ratio : 2.40:1
Frame rate mode : Constant
Frame rate : 23.976 (23976/1000) FPS
Color space : YUV
Chroma subsampling : 4:2:0
Bit depth : 8 bits
Scan type : Progressive
Bits/(Pixel*Frame) : 0.159
Stream size : 1.41 GiB (60%)
Title : Enigma
Writing library : x264 core 152 r2851 ba24899
Encoding settings : cabac=1 / ref=11 / deblock=1:-2:-2 / analyse=0x3:0x113 / me=umh / subme=10 / psy=1 / psy_rd=1.01:0.05 / mixed_ref=1 / me_range=32 / chroma_me=1 / trellis=2 / 8x8dct=1 / cqm=0 / deadzone=21,11 / fast_pskip=0 / chroma_qp_offset=-3 / threads=12 / lookahead_threads=3 / sliced_threads=0 / nr=0 / decimate=0 / interlaced=0 / bluray_compat=0 / constrained_intra=0 / bframes=10 / b_pyramid=2 / b_adapt=2 / b_bias=0 / direct=3 / weightb=1 / open_gop=0 / weightp=2 / keyint=240 / keyint_min=23 / scenecut=40 / intra_refresh=0 / rc=2pass / mbtree=0 / bitrate=1674 / ratetol=1.0 / qcomp=0.60 / qpmin=0 / qpmax=51 / qpstep=4 / cplxblur=20.0 / qblur=0.5 / ip_ratio=1.30 / pb_ratio=1.20 / aq=3:0.80
Language : English
Default : Yes
Forced : No
Color range : Limited
Color primaries : BT.709
Transfer characteristics : BT.709
Matrix coefficients : BT.709

Audio #1
ID : 2
Format : AC-3
Format/Info : Audio Coding 3
Mode extension : CM (complete main)
Format settings, Endianness : Big
Codec ID : A_AC3
Duration : 2 h 4 min
Bit rate mode : Constant
Bit rate : 384 kb/s
Channel(s) : 6 channels
Channel positions : Front: L C R, Side: L R, LFE
Sampling rate : 48.0 kHz
Frame rate : 31.250 FPS (1536 spf)
Compression mode : Lossy
Stream size : 342 MiB (14%)
Title : iTunes
Language : Russian
Default : Yes
Forced : No

Audio #2
ID : 3
Format : AC-3
Format/Info : Audio Coding 3
Mode extension : CM (complete main)
Format settings, Endianness : Big
Codec ID : A_AC3
Duration : 2 h 4 min
Bit rate mode : Constant
Bit rate : 192 kb/s
Channel(s) : 2 channels
Channel positions : Front: L R
Sampling rate : 48.0 kHz
Frame rate : 31.250 FPS (1536 spf)
Compression mode : Lossy
Stream size : 171 MiB (7%)
Title : MVO (HDRezka Studio)
Language : Russian
Default : No
Forced : No

Audio #3
ID : 4
Format : AC-3
Format/Info : Audio Coding 3
Mode extension : CM (complete main)
Format settings, Endianness : Big
Codec ID : A_AC3
Duration : 2 h 4 min
Bit rate mode : Constant
Bit rate : 448 kb/s
Channel(s) : 6 channels
Channel positions : Front: L C R, Side: L R, LFE
Sampling rate : 48.0 kHz
Frame rate : 31.250 FPS (1536 spf)
Compression mode : Lossy
Stream size : 400 MiB (17%)
Language : English
Default : No
Forced : No

Text #1
ID : 5
Format : UTF-8
Codec ID : S_TEXT/UTF8
Codec ID/Info : UTF-8 Plain Text
Title : Full
Language : Russian
Default : No
Forced : No

Text #2
ID : 6
Format : UTF-8
Codec ID : S_TEXT/UTF8
Codec ID/Info : UTF-8 Plain Text
Title : Full
Language : English
Default : No
Forced : No

Text #3
ID : 7
Format : UTF-8
Codec ID : S_TEXT/UTF8
Codec ID/Info : UTF-8 Plain Text
Title : SDH
Language : English
Default : No
Forced : No

Menu
00:00:00.000 : en:Chapter 1
00:15:11.327 : en:Chapter 2
00:42:26.335 : en:Chapter 3
01:05:14.202 : en:Chapter 4
01:26:20.550 : en:Chapter 5
01:45:36.247 : en:Chapter 6
Релиз от:

Автор релиза: pb.wtf



Скачать Игры разумов через торрент https://a.radikal.ru/a09/1904/e8/2dde3fae4c28.jpg Скачать фильм Игры разумов через торрент бесплантно в хорошем качестве Описание: Англия середины XIX века. Оксфордский профессор Джеймс Мюррей работает над первым в истории словарем английского языка, а его ... 7.7 10 3
Info! Золотая раздача, скачанное не засчитывается.
Торрент: Зарегистрирован [2019-06-13 03:32] · скачан: 144 раз
Статус: √ проверено
Размер: 2.35 GB
Как cкачать? Как скачать Игры разумов через торрент | qTorrent

% Раздел Тема Автор DL S | L
Фильмы (WEB-DL 720p, 1080p) [ 4.64 GB ] Игры разумов / The Professor and the Madman [2019 биография WEB-DL 1080p] Dub - ExKinoRay Enigma2010 Скачать
255 | 9
Фильмы 2019 [DVDrip, WEB-DLRip, HDrip] (DUB, MVO) [ 2.19 GB ] Игры разумов / The Professor and the Madman [2019 биография WEB-DLRip-AVC] Dub - ExKinoRay Enigma2010 Скачать
67 | 2
T Фильмы 2019 [DVDrip, WEB-DLRip, HDrip] (DUB, MVO) [ 2.02 GB ] Игры разумов / The Professor and the Madman [2019 биография WEB-DLRip-AVC] MVO [HDRezka Studio] - ExKinoRay Enigma2010 Скачать
95 | 0
T Фильмы 2019 [DVDrip, WEB-DLRip, HDrip] (DUB, MVO) [ 1.45 GB ] Игры разумов / The Professor and the Madman [2019 биография WEB-DLRip] MVO [HDRezka Studio] - ExKinoRay Enigma2010 Скачать
9 | 0
T Фильмы (WEB-DL 720p, 1080p) [ 4.48 GB ] Игры разумов / The Professor and the Madman [2019 биография WEB-DL 1080p] MVO [HDRezka Studio] - ExKinoRay Enigma2010 Скачать
14 | 0


>> Регистрируемся здесь <<






Отзывы и комментарии о схеме читаем и пишем здесь: ---> Отзывы и комментарии о схеме

Новые благодарочки в телеграм довольных пользователей:
скриншот   скриншот   скриншот   скриншот   скриншот
    Дорогой пользователь! Огромная просьба, поблагодарите релизера, оцените раздачу и оставьте свои комментарий, если Вы скачали Игры разумов через торрент бесплатно! Внесите свою лепту в развитие PiratBit!
    Комментировать посты могут только пользователи прошедшие не сложную регистрацию
    Показать сообщения:    

    Игры разумов через торрент
    Скачать бесплатно Игры разумов
    Игры разумов скачать торрент
    Игры разумов смотреть онлайн
    Cкачать фильм Игры разумов бесплатно
    Игры разумов скачать торрент в хорошем качестве
    Игры разумов смотреть онлайн бесплатно в хорошем качестве


    Вы не можете начинать темы
    Вы не можете отвечать на сообщения
    Вы не можете редактировать свои сообщения
    Вы не можете удалять свои сообщения
    Вы не можете голосовать в опросах
    Вы не можете прикреплять файлы к сообщениям
    Вы можете скачивать файлы