новый адрес пиратбит piratbit
Мега распродажа FORZA HORIZON 4 ULTIMATE+ВСЕ DLC+ОНЛАЙН всего за 499р. 349 руб. (супер цена). Внимание количество ограничено!!!

iTunes

1+1

iTunes

мы

iTunes

1

iTunes

Чернобыль

iTunes

Ральф против интернета

Лицензия

ПШазам

Лицензия

Игра престолов

Лицензия

30
pack

ВАЖНО

!!Акция!!

Alien_RageХит недели

RePack

Resident Evil 21

ИГРА 18+

pack

RePack

Metro:Exodus

!!Акция!!

Alien_Rage

RePack

fifa19

RePack

Assassins Creed: Odyssey

RePack

NEED FOR SPEED™ PAYBACK

3 сезон

9 сезон

Бесстыжие 9 сезон

Все сериалы

все сериалы на PB.wtf

RePack

FAR CRY 5
Ребята, катастрофически не хватает 1900р. для оплаты серверов за Октябрь (всвязи с блокировками трафик упал в 3 раза), 1-2р., выручайте.
  

Осмос / Osmosis / Сезон: 1 / Серии: 1-8 из 8 (Пьер Акнин, Мона Ашаш, Томас Винсент) [2019, фантастика, мелодрама, WEB-DL 1080p] MVO [TVShows] pb.wtf

Осмос через торрент pb.wtf

Размер: 8.95 GB | Добавлен: 4 мес. 24 д. назад | Торрент скачан:33 раза
Скачать  

19-06-2019 12:35 Осмос Скачать торрент  

Осмос | Osmosis Год выпуска: 2019
Страна: Франция
Жанр: фантастика, мелодрама
Продолжительность: ~ 00:42:00
Перевод: Профессиональный (многоголосый закадровый) | TVShows
Субтитры: English

Режиссёр: Пьер Акнин, Мона Ашаш, Томас Винсент

rating


В ролях: Агат Боницер, Хьюго Бекер, Гаэль Камилинди, Фабьен Дьюкомман, Джимми Лабо, Орелия Пети, Лор-Люсиль Симон, Дмитрий Сторож, Пьер Ханчиссе и др.

Описание: Последнее достижение техники, интегрированное прямо в тело, позволяет человеку найти для себя идеального партнёра. Однако группа бета-тестеров быстро понимает, что любовь не так однозначна, как принято считать.

Качество: WEB-DL 1080p
Формат: MKV

Видео: AVC, 1920x1080, 1.85:1, 25 fps, 3010 kb/s
Аудио 1: Русский, AC-3, 48.0 kHz, 6 ch, 384 kb/s
Аудио 2: Английский, E-AC-3, 48.0 kHz, 6 ch, 640 kb/s
General
Unique ID : 25108087491643965970069348742643874381 (0x12E3A44A084D11621AAB28F8EFF07A4D)
Complete name : C:\Users\Desktop\Osmosis.S01.1080p.TVShows\Osmosis.S01E01.1080p.TVShows.mkv
Format : Matroska
Format version : Version 4 / Version 2
File size : 1.22 GiB
Duration : 44 min 2 s
Overall bit rate mode : Variable
Overall bit rate : 3 966 kb/s
Encoded date : UTC 2019-06-18 07:48:03
Writing application : mkvmerge v33.1.0 ('Primrose') 64-bit
Writing library : libebml v1.3.7 + libmatroska v1.5.0

Video
ID : 1
Format : AVC
Format/Info : Advanced Video Codec
Format profile : Main@L4
Format settings : CABAC / 3 Ref Frames
Format settings, CABAC : Yes
Format settings, ReFrames : 3 frames
Codec ID : V_MPEG4/ISO/AVC
Duration : 44 min 2 s
Bit rate mode : Variable
Bit rate : 3 010 kb/s
Maximum bit rate : 4 515 kb/s
Width : 1 920 pixels
Height : 1 080 pixels
Display aspect ratio : 16:9
Frame rate mode : Constant
Frame rate : 25.000 FPS
Color space : YUV
Chroma subsampling : 4:2:0
Bit depth : 8 bits
Scan type : Progressive
Bits/(Pixel*Frame) : 0.058
Stream size : 926 MiB (74%)
Writing library : x264 core 148 r2715 7e75228
Encoding settings : cabac=1 / ref=3 / deblock=1:0:0 / analyse=0x1:0x111 / me=umh / subme=10 / psy=1 / psy_rd=1.00:0.00 / mixed_ref=1 / me_range=24 / chroma_me=1 / trellis=2 / 8x8dct=0 / cqm=0 / deadzone=21,11 / fast_pskip=1 / chroma_qp_offset=-2 / threads=8 / lookahead_threads=1 / sliced_threads=0 / nr=0 / decimate=1 / interlaced=0 / bluray_compat=0 / stitchable=1 / constrained_intra=0 / bframes=2 / b_pyramid=0 / b_adapt=2 / b_bias=0 / direct=3 / weightb=1 / open_gop=0 / weightp=2 / keyint=50 / keyint_min=26 / scenecut=0 / intra_refresh=0 / rc_lookahead=50 / rc=2pass / mbtree=1 / bitrate=3010 / ratetol=1.0 / qcomp=0.50 / qpmin=6 / qpmax=51 / qpstep=4 / cplxblur=20.0 / qblur=0.5 / vbv_maxrate=4515 / vbv_bufsize=6020 / nal_hrd=vbr / filler=0 / ip_ratio=1.40 / aq=1:1.00
Default : Yes
Forced : No

Audio #1
ID : 2
Format : AC-3
Format/Info : Audio Coding 3
Codec ID : A_AC3
Duration : 44 min 2 s
Bit rate mode : Constant
Bit rate : 384 kb/s
Channel(s) : 6 channels
Channel positions : Front: L C R, Side: L R, LFE
Sampling rate : 48.0 kHz
Frame rate : 31.250 FPS (1536 SPF)
Bit depth : 16 bits
Compression mode : Lossy
Stream size : 121 MiB (10%)
Title : TVShows
Language : Russian
Service kind : Complete Main
Default : Yes
Forced : Yes

Audio #2
ID : 3
Format : E-AC-3
Format/Info : Enhanced Audio Coding 3
Codec ID : A_EAC3
Duration : 44 min 2 s
Bit rate mode : Constant
Bit rate : 640 kb/s
Channel(s) : 6 channels
Channel positions : Front: L C R, Side: L R, LFE
Sampling rate : 48.0 kHz
Frame rate : 187.500 FPS (256 SPF)
Compression mode : Lossy
Stream size : 202 MiB (16%)
Title : Original
Language : French
Service kind : Complete Main
Default : No
Forced : No

Text
ID : 4
Format : UTF-8
Codec ID : S_TEXT/UTF8
Codec ID/Info : UTF-8 Plain Text
Duration : 41 min 38 s
Bit rate : 59 b/s
Count of elements : 522
Stream size : 18.3 KiB (0%)
Title : English
Language : English
Default : No
Forced : No
Внимание! Раздача ведётся путём добавления новых серий; при каждом добавлении создаётся новый торрент.
Чтобы начать докачку новой серии, пользователям необходимо сделать следующее:
1. Остановить скачивание.
2. Удалить старый торрент у себя из клиента (старые серии удалять не надо).
3. Скачать новый торрент и запустить его у себя в клиенте вместо старого, при этом указать клиенту путь в старую папку куда и должно происходить скачивание новых серий.
Ваш клиент при этом должен произвести хеширование (проверку) старой папки (если не производит сам - помогите ему сделать это), и будет докачивать только те серии которых у вас ещё нет. Старые серии при этом не удаляются, а продолжают раздаваться!
Eсли вы уже удалили старые серии, то предотвратить повторную закачку старых серий можно, отжав галочку в соответствующих местах при запуске нового торрента.
pb.wtf



Скачать Осмос через торрент https://i106.fastpic.ru/big/2019/0618/c1/2e1cffd1c04fbad60c378f1ed97b22c1.png Скачать фильм Осмос через торрент бесплантно в хорошем качестве Описание: Последнее достижение техники, интегрированное прямо в тело, позволяет человеку найти для себя идеального партнёра. Однако группа ... 10 10 3
Торрент: Зарегистрирован [2019-06-20 03:17] · скачан: 33 раз
Статус: √ проверено
Размер: 8.95 GB
Как cкачать? Как скачать Осмос через торрент | qTorrent

% Раздел Тема Автор DL S | L
Зарубежные сериалы [ 5.12 GB ] Осмос / Osmosis / Сезон: 1 / Серии: 1-8 из 8 [2019 WEB-DL 720p] MVO [BaibaKo] bober100 Скачать
1 | 0


>> Регистрируемся здесь <<






Отзывы и комментарии о схеме читаем и пишем здесь: ---> Отзывы и комментарии о схеме

Новые благодарочки в телеграм довольных пользователей:
скриншот   скриншот   скриншот   скриншот   скриншот
    Дорогой пользователь! Огромная просьба, поблагодарите релизера, оцените раздачу и оставьте свои комментарий, если Вы скачали Осмос через торрент бесплатно! Внесите свою лепту в развитие PiratBit!
    Комментировать посты могут только пользователи прошедшие не сложную регистрацию
    Показать сообщения:    

    Осмос через торрент
    Скачать бесплатно Осмос
    Осмос скачать торрент
    Осмос смотреть онлайн
    Cкачать фильм Осмос бесплатно
    Осмос скачать торрент в хорошем качестве
    Осмос смотреть онлайн бесплатно в хорошем качестве


    Вы не можете начинать темы
    Вы не можете отвечать на сообщения
    Вы не можете редактировать свои сообщения
    Вы не можете удалять свои сообщения
    Вы не можете голосовать в опросах
    Вы не можете прикреплять файлы к сообщениям
    Вы можете скачивать файлы