MEGA NEWS Получи личный уникальный адрес сайта и защити себя от блокировок. Внимание количество ограничено!!!

iTunes

1+1

iTunes

мы

iTunes

1

iTunes

Чернобыль

iTunes

Ральф против интернета

Лицензия

ПШазам

Лицензия

Игра престолов

Лицензия

30
pack

ВАЖНО

!!Акция!!

Alien_RageХит недели

RePack

Resident Evil 21

ИГРА 18+

pack

RePack

Metro:Exodus

!!Акция!!

Alien_Rage

RePack

fifa19

RePack

Assassins Creed: Odyssey

RePack

NEED FOR SPEED™ PAYBACK

3 сезон

9 сезон

Бесстыжие 9 сезон

Все сериалы

все сериалы на PB.wtf

RePack

FAR CRY 5
Ребята, катастрофически не хватает 1900р. для оплаты серверов за АВГУСТ (всвязи с блокировками трафик упал в 3 раза), 1-2р., выручайте.
  

Осмос / Osmosis / Сезон: 1 / Серии: 1-8 из 8 (Пьер Акнин, Мона Ашаш, Томас Венсан) [2019, Фантастика, мелодрама, WEB-DL 720p] MVO [BaibaKo] pb.wtf

Осмос через торрент pb.wtf

Раздают: 1 [ 221 KB/s ]
Размер: 5.12 GB | Добавлен: 3 мес. 29 д. назад | Торрент скачан:50 раз
Скачать  

19-06-2019 13:08 Осмос Скачать торрент  

Осмос / Osmosis
«If Science Could Guarantee True Love, Would You Say Yes?»
Год выпуска: 2019
Страна: Франция
Жанр: Фантастика, мелодрама
Продолжительность: 00:43:34
Перевод: Профессиональный (многоголосый закадровый) | BaibaKo
Субтитры: Русские, английские, немецкие, французские, итальянские, испанские, голландские, португальские

Режиссёр: Пьер Акнин, Мона Ашаш, Томас Венсан

rating


В ролях: Хьюго Бекер, Агат Боницер, Хэвиланд Стиллвелл, Фабьен Дьюкомман, Гаэль Камилинди

Описание: Фантастический сериал «Осмос» отправляет своих зрителей в ближайшее будущее. В Париже начинается разработка серьезной технологии, которая должна изменить мир раз и навсегда. Мы знакомимся с Полом и Эстер, находящимися на пороге создания по-настоящему революционной программы. Они уже близки к внедрению полноценного имплантата, способного позволить человеку, использующему эту технологию, найти свою вторую половинку. Предполагается, что это техническое достижение позволит по-иному взглянуть на романтические отношения, сделав их научно обоснованными. Когда разработка подходит к своему логическому завершению, то Эстер и Пол решают немного отложить широкое распространение своего изобретения. Для начала они хотят протестировать свою технологию на нескольких людях. И лишь после этого они представят изобретение публике. К чему это может привести? Даст ли изобретение желаемый результат? Все эти вопросы волнуют создателей уникальной технологии. Им предстоит собственными глазами увидеть действие прибора.

Качество: WEB-DL 720p
Формат: MKV

Видео: MPEG-4 AVC, 1280x720 (16:9), 25.000 fps, 1540 Kbps, 0.067 bits/pixel
Аудио 1: AC3, 48.0 KHz, 6 ch, 384 kbps [Rus]
Аудио 2: AC3, 48.0 KHz, 6 ch, 384 kbps [Fr]
Релиз без рекламы

Профессиональное многоголосое закадровое озвучание: BaibaKo

Очистка от рекламы и оформление
: Atla22
1-01. Тест / The Test
1-02. Половинка / Soulmate
1-03. Проблемы / Troubles
1-04. Кризис / Crisis
1-05. Предательство / Betrayal
1-06. Разделение / Separation
1-07. Искупление / Redemption
1-08. Возрождение / Rebirth
General

Complete name : Downloads\Осмос. Сериал. 2019. BaibaKo (WEB-DL 720p)\Osmosis.s01e01. Тест.mkv
Format : Matroska
Format version : Version 2
File size : 713 MiB
Duration : 43mn 34s
Overall bit rate mode : Variable
Overall bit rate : 2 289 Kbps
Writing application : mkvmerge v6.9.1 ('Blue Panther') 32bit built on Apr 18 2014 18:15:44
Writing library : libebml v1.3.0 + libmatroska v1.4.1
Video #1
ID : 1
Format : AVC
Format/Info : Advanced Video Codec
Format profile : Main@L3.1
Format settings, CABAC : Yes
Format settings, ReFrames : 3 frames
Codec ID : V_MPEG4/ISO/AVC
Duration : 43mn 34s
Bit rate mode : Variable
Bit rate : 1 540 Kbps
Maximum bit rate : 2 310 Kbps
Width : 1 280 pixels
Height : 720 pixels
Display aspect ratio : 16:9
Frame rate mode : Constant
Frame rate : 25.000 fps
Color space : YUV
Chroma subsampling : 4:2:0
Bit depth : 8 bits
Scan type : Progressive
Bits/(Pixel*Frame) : 0.067
Stream size : 460 MiB (64%)
Writing library : x264 core 148 r2715 7e75228
Encoding settings : cabac=1 / ref=3 / deblock=1:0:0 / analyse=0x1:0x111 / me=umh / subme=10 / psy=1 / psy_rd=1.00:0.00 / mixed_ref=1 / me_range=24 / chroma_me=1 / trellis=2 / 8x8dct=0 / cqm=0 / deadzone=21,11 / fast_pskip=1 / chroma_qp_offset=-2 / threads=8 / lookahead_threads=1 / sliced_threads=0 / nr=0 / decimate=1 / interlaced=0 / bluray_compat=0 / stitchable=1 / constrained_intra=0 / bframes=2 / b_pyramid=0 / b_adapt=2 / b_bias=0 / direct=3 / weightb=1 / open_gop=0 / weightp=2 / keyint=50 / keyint_min=26 / scenecut=0 / intra_refresh=0 / rc_lookahead=50 / rc=2pass / mbtree=1 / bitrate=1540 / ratetol=1.0 / qcomp=0.50 / qpmin=6 / qpmax=51 / qpstep=4 / cplxblur=20.0 / qblur=0.5 / vbv_maxrate=2310 / vbv_bufsize=3080 / nal_hrd=vbr / filler=0 / ip_ratio=1.40 / aq=1:1.00
Language : French
Default : Yes
Forced : No
Audio #2
ID : 2
Format : AC-3
Format/Info : Audio Coding 3
Mode extension : CM (complete main)
Format settings, Endianness : Big
Codec ID : A_AC3
Duration : 43mn 34s
Bit rate mode : Constant
Bit rate : 384 Kbps
Channel(s) : 6 channels
Channel positions : Front: L C R, Side: L R, LFE
Sampling rate : 48.0 KHz
Bit depth : 16 bits
Compression mode : Lossy
Stream size : 120 MiB (17%)
Language : Russian
Default : Yes
Forced : No
Audio #3
ID : 3
Format : AC-3
Format/Info : Audio Coding 3
Mode extension : CM (complete main)
Format settings, Endianness : Big
Codec ID : A_AC3
Duration : 43mn 34s
Bit rate mode : Constant
Bit rate : 384 Kbps
Channel(s) : 6 channels
Channel positions : Front: L C R, Side: L R, LFE
Sampling rate : 48.0 KHz
Bit depth : 16 bits
Compression mode : Lossy
Stream size : 120 MiB (17%)
Language : French
Default : No
Forced : No
Text #4
ID : 4
Format : UTF-8
Codec ID : S_TEXT/UTF8
Codec ID/Info : UTF-8 Plain Text
Language : Russian
Default : No
Forced : No
Text #5
ID : 5
Format : UTF-8
Codec ID : S_TEXT/UTF8
Codec ID/Info : UTF-8 Plain Text
Title : SDH
Language : English
Default : No
Forced : No
Text #6
ID : 6
Format : UTF-8
Codec ID : S_TEXT/UTF8
Codec ID/Info : UTF-8 Plain Text
Language : German
Default : No
Forced : No
Text #7
ID : 7
Format : UTF-8
Codec ID : S_TEXT/UTF8
Codec ID/Info : UTF-8 Plain Text
Title : SDH
Language : French
Default : No
Forced : No
Text #8
ID : 8
Format : UTF-8
Codec ID : S_TEXT/UTF8
Codec ID/Info : UTF-8 Plain Text
Language : Italian
Default : No
Forced : No
Text #9
ID : 9
Format : UTF-8
Codec ID : S_TEXT/UTF8
Codec ID/Info : UTF-8 Plain Text
Language : Spanish
Default : No
Forced : No
Text #10
ID : 10
Format : UTF-8
Codec ID : S_TEXT/UTF8
Codec ID/Info : UTF-8 Plain Text
Language : Dutch
Default : No
Forced : No
Text #11
ID : 11
Format : UTF-8
Codec ID : S_TEXT/UTF8
Codec ID/Info : UTF-8 Plain Text
Language : Portuguese
Default : No
Forced : No
скриншот  скриншот  скриншот  

скриншот  скриншот  скриншот  
pb.wtf



Скачать Осмос через торрент https://i110.fastpic.ru/big/2019/0404/94/1db581ad1e95b909c451742bfed20894.png Скачать фильм Осмос через торрент бесплантно в хорошем качестве Описание: Фантастический сериал «Осмос» отправляет своих зрителей в ближайшее будущее. В Париже начинается разработка серьезной технологии, ... 10 10 3
Торрент: Зарегистрирован [2019-06-19 13:08] · скачан: 50 раз
Статус: √ проверено
Размер: 5.12 GB
Как cкачать? Как скачать Осмос через торрент | qTorrent

% Раздел Тема Автор DL S | L
Зарубежные сериалы [ 8.95 GB ] Осмос / Osmosis / Сезон: 1 / Серии: 1-8 из 8 [2019 WEB-DL 1080p] MVO [TVShows] bober100 Скачать
3 | 0


>> Регистрируемся здесь <<






Отзывы и комментарии о схеме читаем и пишем здесь: ---> Отзывы и комментарии о схеме

Новые благодарочки в телеграм довольных пользователей:
скриншот   скриншот   скриншот   скриншот   скриншот
    Дорогой пользователь! Огромная просьба, поблагодарите релизера, оцените раздачу и оставьте свои комментарий, если Вы скачали Осмос через торрент бесплатно! Внесите свою лепту в развитие PiratBit!
    Комментировать посты могут только пользователи прошедшие не сложную регистрацию
    Показать сообщения:    

    Осмос через торрент
    Скачать бесплатно Осмос
    Осмос скачать торрент
    Осмос смотреть онлайн
    Cкачать фильм Осмос бесплатно
    Осмос скачать торрент в хорошем качестве
    Осмос смотреть онлайн бесплатно в хорошем качестве


    Вы не можете начинать темы
    Вы не можете отвечать на сообщения
    Вы не можете редактировать свои сообщения
    Вы не можете удалять свои сообщения
    Вы не можете голосовать в опросах
    Вы не можете прикреплять файлы к сообщениям
    Вы можете скачивать файлы