Мега распродажа FORZA HORIZON 4 ULTIMATE+ВСЕ DLC+ОНЛАЙН всего за 499р. 349 руб. (супер цена). Внимание количество ограничено!!!

iTunes

1+1

iTunes

мы

iTunes

1

1 сезон

Чернобыль

1 сезон

Ральф против интернета

Лицензия

ПШазам

8 сезон

Игра престолов

Лицензия

30
pack

ВАЖНО

!!Акция!!

Alien_RageХит недели

RePack

Resident Evil 21

ИГРА 18+

pack

RePack

Metro:Exodus

!!Акция!!

Alien_Rage

RePack

fifa19

RePack

Assassins Creed: Odyssey

RePack

NEED FOR SPEED™ PAYBACK

3 сезон

9 сезон

Бесстыжие 9 сезон

Все сериалы

все сериалы на PB.wtf

RePack

FAR CRY 5
Ребята, катастрофически не хватает 2730р. для оплаты серверов за ИЮНЬ (всвязи с блокировками трафик упал в 3 раза), 1-2р., выручайте.
  

Уловка-22 / Catch-22 / Сезон: 1 / Серии: 1-6 из 6 (Джордж Клуни, Грант Хеслов, Эллен Кёрас) [2019, драма, комедия, криминал, военный, WEB-DL 1080p] MVO [TVShows] pb.wtf

Уловка-22 через торрент pb.wtf

Раздают: 3 [ 12 KB/s ] Качают: 2 [ 0 KB/s ]
Размер: 11.07 GB | Добавлен: 26 д. назад | Торрент скачан:21 раз
Скачать  

21-06-2019 09:25 Уловка-22 Скачать торрент  

Уловка-22 / Catch-22 Страна: США
Год выпуска: 2019
Производство: Paramount Television, Anonymous Content и др.
Жанр: драма, комедия, криминал, военный
Продолжительность: ~00:45:00 серия
Перевод: Профессиональный (многоголосый закадровый) | TVShows
Субтитры: нет

Режиссёр: Джордж Клуни, Грант Хеслов, Эллен Кёрас

В ролях: Кристофер Эбботт, Кайл Чандлер, Джордж Клуни, Мартин Делани, Рафи Гаврон, Джанкарло Джаннини, Герран Хауэлл, Хью Лори, Грэхэм Патрик Мартин, Кевин Дж. О’Коннор

Описание: 1944 год. Бомбардировочный полк, в котором служит капитан Йоссариан, дислоцировался на острове в Тирренском море. Чтобы выйти в запас, военнослужащему нужно совершить определенное количество боевых вылетов согласно норме, установленной в ВВС США. Однако командир полка, выслуживая очередной чин, постоянно повышает планку. Йоссариан пытается убраться подальше от войны и ссылается на сумасшествие, поскольку это заболевание является официальной причиной для отстранения от полётов. Но согласно некоему правительственному постановлению, «Уловке-22», всякий, кто называет себя сумасшедшим с целью освободиться от воинской обязанности, тем самым доказывает обратное, ведь подобное заявление явно свидетельствует о здравомыслии.

rating


Качество: WEB-DL 1080p
Формат: MKV

Видео: MPEG4 AVC Video, H264, 16:9, 1920x1080, 23.976 fps, ~5672 kbps
Аудио: Russian (AC3, 2 ch, 448 kbps, 16 bits, 48.0 KHz) - MVO
Аудио 2: English (AC3, 2 ch, 64 kbps, 16 bits, 48.0 KHz) - оригинал

Реклама: отсутствует
Раздача ведётся путём добавления новых серий, при каждом добавлении создаётся новый торрент. Чтобы начать докачку новой серии, пользователям необходимо сделать следующее:

- Остановить скачивание.
- Удалить старый торрент у себя из клиента (старые серии удалять не надо).
- Скачать новый торрент и запустить его у себя в клиенте вместо старого, при этом указать клиенту путь в старую папку куда и должно происходить скачивание новых серий.

Ваш клиент при этом должен произвести хеширование (проверку) старой папки (если не производит сам - помогите ему сделать это), и будет докачивать только те серии которых у вас ещё нет. Старые серии при этом не удаляются, а продолжают раздаваться!
Если вы уже удалили старые серии, то предотвратить повторную закачку старых серий можно, отжав галочку в соответствующих местах при запуске нового торрента. По возможности, желательно не удалять старые серии как можно дольше, чтобы релизер не столько продолжал раздавать старые серии, а смог сконцентрироваться на новых.
General
Unique ID : 190710287180952320243186220596704506530 (0x8F79771C7D07F631AA19BE3F285AF2A2)
Complete name : C:\Users\Desktop\Catch.22.S01.1080p.TVShows\Catch.22.S01E01.1080p.TVShows.mkv
Format : Matroska
Format version : Version 4 / Version 2
File size : 1.96 GiB
Duration : 45 min 20 s
Overall bit rate : 6 186 kb/s
Encoded date : UTC 2019-06-06 06:21:21
Writing application : mkvmerge v33.1.0 ('Primrose') 64-bit
Writing library : libebml v1.3.7 + libmatroska v1.5.0

Video
ID : 1
Format : AVC
Format/Info : Advanced Video Codec
Format profile : High@L4
Format settings : CABAC / 4 Ref Frames
Format settings, CABAC : Yes
Format settings, ReFrames : 4 frames
Codec ID : V_MPEG4/ISO/AVC
Duration : 45 min 20 s
Bit rate : 5 672 kb/s
Width : 1 920 pixels
Height : 1 080 pixels
Display aspect ratio : 16:9
Frame rate mode : Constant
Frame rate : 23.976 (24000/1001) FPS
Color space : YUV
Chroma subsampling : 4:2:0
Bit depth : 8 bits
Scan type : Progressive
Bits/(Pixel*Frame) : 0.114
Stream size : 1.80 GiB (92%)
Language : English
Default : Yes
Forced : No

Audio #1
ID : 2
Format : AC-3
Format/Info : Audio Coding 3
Codec ID : A_AC3
Duration : 45 min 20 s
Bit rate mode : Constant
Bit rate : 448 kb/s
Channel(s) : 2 channels
Channel positions : Front: L R
Sampling rate : 48.0 kHz
Frame rate : 31.250 FPS (1536 SPF)
Bit depth : 16 bits
Compression mode : Lossy
Stream size : 145 MiB (7%)
Title : TVShows
Language : Russian
Service kind : Complete Main
Default : Yes
Forced : Yes

Audio #2
ID : 3
Format : AAC
Format/Info : Advanced Audio Codec
Format profile : HE-AAC / LC
Format settings : Explicit
Codec ID : A_AAC-2
Duration : 45 min 20 s
Bit rate : 64.0 kb/s
Channel(s) : 2 channels
Channel positions : Front: L R
Sampling rate : 48.0 kHz / 24.0 kHz
Frame rate : 23.438 FPS (1024 SPF)
Compression mode : Lossy
Stream size : 20.8 MiB (1%)
Title : Original
Language : English
Default : No
Forced : No
скриншот  скриншот  скриншот  скриншот  

скриншот  скриншот  скриншот  скриншот  
pb.wtf



Скачать Уловка-22 через торрент https://i109.fastpic.ru/big/2019/0520/d5/cf1350721ce49b6f4f2ec6391a5a0bd5.jpg Скачать фильм Уловка-22 через торрент бесплантно в хорошем качестве Описание: 1944 год. Бомбардировочный полк, в котором служит капитан Йоссариан, дислоцировался на острове в Тирренском море. Чтобы выйти в ... 10 10 2
Торрент: Зарегистрирован [2019-06-21 09:25] · скачан: 21 раз
Статус: √ проверено
Размер: 11.07 GB
Как cкачать? Как скачать Уловка-22 через торрент | qTorrent

% Раздел Тема Автор DL S | L
Зарубежные сериалы [ 27.7 GB ] Уловка-22 / Catch-22 / Сезон 1 / Серии 1-6 из 6 [2019 военный UHD WEB-DL 2160p] [SDR] MVO [AlexFilm] sheker187 Скачать
1 | 0
Зарубежные сериалы [ 5.61 GB ] Уловка-22 / Catch-22 / Сезон 1 / Серии 1-6 из 6 [2019 военный WEBRip 720p] [MVO] killermax2013 Скачать
3 | 0
Зарубежные сериалы [ 6.21 GB ] Уловка-22 / Catch-22 / Сезон: 1 / Серии: 1-6 из 6 [2019 военный WEBRip 720p] MVO [LostFilm] bober100 Скачать
4 | 2
Зарубежные сериалы [ 3.63 GB ] Уловка-22 / Catch-22 / Сезон: 1 / Серии: 1-6 из 6 [2019 военный WEBRip] MVO [LostFilm] bober100 Скачать
4 | 2
Зарубежные сериалы [ 3.63 GB ] Уловка-22 / Catch-22 / Сезон 1 / Серии 1-6 из 6 [2019 военный WEB-DLRip] [MVO] killermax2013 Скачать
4 | 1
Зарубежные сериалы [ 11.01 GB ] Уловка-22 / Catch-22 / Сезон 1 / Серии 1-6 из 6 [2019 военный WEBRip 1080p] [MVO] killermax2013 Скачать
1 | 0
Зарубежные сериалы [ 5.25 GB ] Уловка-22 / Catch-22 / Сезон 1 / Серии 1-6 из 6 [2019 военный WEB-DL 720p] [MVO] killermax2013 Скачать
1 | 0


>> Регистрируемся здесь <<






Отзывы и комментарии о схеме читаем и пишем здесь: ---> Отзывы и комментарии о схеме

Новые благодарочки в телеграм довольных пользователей:
скриншот   скриншот   скриншот   скриншот   скриншот
    Дорогой пользователь! Огромная просьба, поблагодарите релизера, оцените раздачу и оставьте свои комментарий, если Вы скачали Уловка-22 через торрент бесплатно! Внесите свою лепту в развитие PiratBit!
    Комментировать посты могут только пользователи прошедшие не сложную регистрацию
    Показать сообщения:    

    Уловка-22 через торрент
    Скачать бесплатно Уловка-22
    Уловка-22 скачать торрент
    Уловка-22 смотреть онлайн
    Cкачать фильм Уловка-22 бесплатно
    Уловка-22 скачать торрент в хорошем качестве
    Уловка-22 смотреть онлайн бесплатно в хорошем качестве


    Вы не можете начинать темы
    Вы не можете отвечать на сообщения
    Вы не можете редактировать свои сообщения
    Вы не можете удалять свои сообщения
    Вы не можете голосовать в опросах
    Вы не можете прикреплять файлы к сообщениям
    Вы можете скачивать файлы