Мега распродажа FORZA HORIZON 4 ULTIMATE+ВСЕ DLC+ОНЛАЙН всего за 499р. 349 руб. (супер цена). Внимание количество ограничено!!!

iTunes

1+1

iTunes

мы

iTunes

1

1 сезон

Чернобыль

1 сезон

Ральф против интернета

Лицензия

ПШазам

8 сезон

Игра престолов

Лицензия

30
pack

ВАЖНО

!!Акция!!

Alien_RageХит недели

RePack

Resident Evil 21

ИГРА 18+

pack

RePack

Metro:Exodus

!!Акция!!

Alien_Rage

RePack

fifa19

RePack

Assassins Creed: Odyssey

RePack

NEED FOR SPEED™ PAYBACK

3 сезон

9 сезон

Бесстыжие 9 сезон

Все сериалы

все сериалы на PB.wtf

RePack

FAR CRY 5
Ребята, катастрофически не хватает 2730р. для оплаты серверов за ИЮНЬ (всвязи с блокировками трафик упал в 3 раза), 1-2р., выручайте.
  

Зов Крови / Lost Girl / Сезон: 1 / Серии: 1-13 из 13 (Джон Фоусет, Стив ДиМарко) [2010, Фэнтези, криминал, BD Remux 1080p] MVO [AXN SciFi] pb.wtf

Зов Крови через торрент pb.wtf

Размер: 109.7 GB | Добавлен: 25 д. назад | Торрент скачан:3 раза
Скачать  

21-06-2019 14:12 Зов Крови Скачать торрент  

Зов Крови / Lost Girl Год выпуска: 2010
Страна: Канада
Жанр: Фэнтези, криминал
Продолжительность: ~00:44:00
Перевод: Профессиональный (многоголосый закадровый) | AXN SciFi
Субтитры: Английские

Режиссёр: Джон Фоусет, Стив Ди

rating

В ролях: Анна Силк, Кристен Холден-Рид, Ксения Соло, Ричард Хоуланд, К.К. Коллинз, Зои Палмер, Кле Беннетт, Арон Тэйджер, Эммануэль Вожье, Джефф Кэссел

Описание: Бо - суккуб. Выросшая в человеческой семье, она не знала о своей истинной природе, считая себя фриком, а неумение контролировать сверхъестественный голод сделало ее одинокой беглянкой, оставляющей после себя череду трупов. Все меняется, когда Бо попадает в поле зрения кланов Фэйри, объяснивших ей кто она. Не желая выбирать между кланами Света и Тьмы, Бо решает занять сторону людей. Ей помогают юная русская воровка Кензи, детектив-оборотень Дайсон и доктор Лорен, занимающаяся изучением Фэйри.

Качество: BDRemux 1080p
Контейнер: MKV

Видео: MPEG-4 AVC Video / 23996 kbps / 1080p / 23.976 fps / 16:9 / High Profile 4.1
Аудио 1: Русский AC3 Dolby Digital, 48.0 KHz, 2 channels, 192 kbps avg
Аудио 2: Английский Dolby TrueHD Audio / 5.1 / 48 kHz / 2401 kbps / 16-bit


Реклама:Отсутствует
101 - It's a Fae, Fae, Fae, Fae World / Этот волшебный, волшебный мир
102 - Where There's a Will, There's a Fae / Где Уилл, там и фэйри
103 - Oh Kappa, My Kappa / О, Каппа, моя Каппа
104 - Faetal Attraction / Фэйритальное влечение
105 - Dead Lucky / Удача и смерть
106 - Food for Thought / Еда не для слабаков
107 - ArachnoFaebia / Арахнофобия
108 - Vexed / Векс
109 - Fae Day / День фейри
110 - The Mourning After / После траура
111 - Faetal Justice / Правосудие фэйри
112 - (Dis)Members Only / Секрет успеха
113 - Blood Lines / Зов крови
Complete name : G:\Lost Girl s01 RGzsRutracker\Lost.Girl.s01e01.Rus.AXN.BDRemux.1080p.RGzsRutracker.mkv
Format : Matroska
Format version : Version 4 / Version 2
File size : 8.14 GiB
Duration : 43 min 40 s
Overall bit rate mode : Variable
Overall bit rate : 26.7 Mb/s
Encoded date : UTC 2019-04-26 17:02:49
Writing application : mkvmerge v32.0.0 ('Astral Progressions') 64-bit
Writing library : libebml v1.3.7 + libmatroska v1.5.0

Video
ID : 1
Format : AVC
Format/Info : Advanced Video Codec
Format profile : High@L4.1
Format settings : CABAC / 4 Ref Frames
Format settings, CABAC : Yes
Format settings, RefFrames : 4 frames
Codec ID : V_MPEG4/ISO/AVC
Duration : 43 min 40 s
Bit rate mode : Variable
Bit rate : 24.0 Mb/s
Maximum bit rate : 39.0 Mb/s
Width : 1 920 pixels
Height : 1 080 pixels
Display aspect ratio : 16:9
Frame rate mode : Constant
Frame rate : 23.976 (24000/1001) FPS
Standard : NTSC
Color space : YUV
Chroma subsampling : 4:2:0
Bit depth : 8 bits
Scan type : Progressive
Bits/(Pixel*Frame) : 0.483
Stream size : 7.32 GiB (90%)
Title : MPEG-4 AVC Video / 23996 kbps / 1080p / 23.976 fps / 16:9 / High Profile 4.1
Language : English
Default : Yes
Forced : No
Color range : Limited
Color primaries : BT.709
Transfer characteristics : BT.709
Matrix coefficients : BT.709

Audio #1
ID : 2
Format : AC-3
Format/Info : Audio Coding 3
Codec ID : A_AC3
Duration : 43 min 40 s
Bit rate mode : Constant
Bit rate : 192 kb/s
Channel(s) : 2 channels
Channel positions : Front: L R
Sampling rate : 48.0 kHz
Frame rate : 31.250 FPS (1536 SPF)
Bit depth : 16 bits
Compression mode : Lossy
Stream size : 60.0 MiB (1%)
Language : Russian
Service kind : Complete Main
Default : Yes
Forced : No

Audio #2
ID : 3
Format : TrueHD
Codec ID : A_TRUEHD
Duration : 43 min 40 s
Bit rate mode : Variable
Bit rate : 2 401 kb/s
Maximum bit rate : 3 390 kb/s
Channel(s) : 6 channels
Channel positions : Front: L C R, Side: L R, LFE
Sampling rate : 48.0 kHz
Frame rate : 1 200.000 FPS (40 SPF)
Compression mode : Lossless
Stream size : 750 MiB (9%)
Title : Dolby TrueHD Audio / 5.1 / 48 kHz / 2401 kbps / 16-bit
Language : English
Default : No
Forced : No

Text
ID : 4
Format : PGS
Muxing mode : zlib
Codec ID : S_HDMV/PGS
Codec ID/Info : Picture based subtitle format used on BDs/HD-DVDs
Duration : 43 min 6 s
Bit rate : 37.6 kb/s
Count of elements : 1056
Stream size : 11.6 MiB (0%)
Title : SDH
Language : English
Default : No
Forced : No

Menu
00:00:00.000 : en:Chapter 1
00:04:59.716 : en:Chapter 2
00:08:42.188 : en:Chapter 3
00:18:44.332 : en:Chapter 4
00:30:13.937 : en:Chapter 5
00:40:22.920 : en:Chapter 6
pb.wtf



Скачать Зов Крови через торрент https://i109.fastpic.ru/big/2019/0426/39/a53f045f070a078f791f98a9c69a7e39.png Скачать фильм Зов Крови через торрент бесплантно в хорошем качестве Описание: Бо - суккуб. Выросшая в человеческой семье, она не знала о своей истинной природе, считая себя фриком, а неумение контролировать ... 10 10 4
Торрент: Зарегистрирован [2019-06-21 14:12] · скачан: 3 раз
Статус: √ проверено
Размер: 109.7 GB
Как cкачать? Как скачать Зов Крови через торрент | qTorrent

% Раздел Тема Автор DL S | L
Зарубежные сериалы [ 6.98 GB ] Зов крови / Lost Girl / Сезон: 4 / Серии: 1-13 из 13 [2013 WEB-DLRip] DVO + Original Assasinca Скачать
1 | 0
Зарубежные сериалы [ 6.98 GB ] Зов крови / Lost Girl [2010 WEB-DLRip двухголосый NewStudio] qwerty411 Скачать
1 | 1
Зарубежные сериалы [ 6.98 GB ] Зов крови / Lost Girl [2010 WEB-DLRip MVO AXN Sci-Fi] qwerty411 Скачать
1 | 0
Зарубежные сериалы [ 4.4 GB ] Потерянная / Зов крови / Lost Girl / Сезон: 1 [2010 HDTVRip Любительский ] markfiter Скачать
1 | 1


>> Регистрируемся здесь <<






Отзывы и комментарии о схеме читаем и пишем здесь: ---> Отзывы и комментарии о схеме

Новые благодарочки в телеграм довольных пользователей:
скриншот   скриншот   скриншот   скриншот   скриншот
    Дорогой пользователь! Огромная просьба, поблагодарите релизера, оцените раздачу и оставьте свои комментарий, если Вы скачали Зов Крови через торрент бесплатно! Внесите свою лепту в развитие PiratBit!
    Комментировать посты могут только пользователи прошедшие не сложную регистрацию
    Показать сообщения:    

    Зов Крови через торрент
    Скачать бесплатно Зов Крови
    Зов Крови скачать торрент
    Зов Крови смотреть онлайн
    Cкачать фильм Зов Крови бесплатно
    Зов Крови скачать торрент в хорошем качестве
    Зов Крови смотреть онлайн бесплатно в хорошем качестве


    Вы не можете начинать темы
    Вы не можете отвечать на сообщения
    Вы не можете редактировать свои сообщения
    Вы не можете удалять свои сообщения
    Вы не можете голосовать в опросах
    Вы не можете прикреплять файлы к сообщениям
    Вы можете скачивать файлы