Мега распродажа FORZA HORIZON 4 ULTIMATE+ВСЕ DLC+ОНЛАЙН всего за 499р. 349 руб. (супер цена). Внимание количество ограничено!!!

iTunes

1+1

iTunes

мы

iTunes

1

1 сезон

Чернобыль

1 сезон

Ральф против интернета

Лицензия

ПШазам

8 сезон

Игра престолов

Лицензия

30
pack

ВАЖНО

!!Акция!!

Alien_RageХит недели

RePack

Resident Evil 21

ИГРА 18+

pack

RePack

Metro:Exodus

!!Акция!!

Alien_Rage

RePack

fifa19

RePack

Assassins Creed: Odyssey

RePack

NEED FOR SPEED™ PAYBACK

3 сезон

9 сезон

Бесстыжие 9 сезон

Все сериалы

все сериалы на PB.wtf

RePack

FAR CRY 5
Ребята, катастрофически не хватает 2730р. для оплаты серверов за ИЮНЬ (всвязи с блокировками трафик упал в 3 раза), 1-2р., выручайте.
  

Гранд Отель / Grand Hotel / Сезон: 1 / Серии: 1-2 из 13 (Билл Д’Элиа) [2019, драма, WEBRip 720p] MVO [LostFilm] pb.wtf

Гранд Отель через торрент pb.wtf

Размер: 3.49 GB | Добавлен: 21 д. назад | Торрент скачан:8 раз
Скачать  

21-06-2019 14:52 Гранд Отель Скачать торрент  

Гранд Отель | Grand Hotel
«***»
Производство: США
Год выпуска: 2019
Жанр: драма
Продолжительность: ~ 00:42:00 серия
Премьера (мир): 17 июня 2019
Перевод: Профессиональный (многоголосый закадровый) | |LostFilm|
Субтитры: English (SDH)
Оригинальная аудиодорожка: Английская

Режиссер: Билл Д’Элиа, Ева Лонгория, Кен Олин

В ролях: Демиан Бишир, Дениза Тонтц, Крис Уоррен, Роселин Санчес, Брайан Алан Крэйг, Жустина Адорно, Ретт Рамирез, Амир Абдалла

Описание:

В центре внимания оказывается влиятельная семья Мендоса, которая проживает на Майами Бич. Именно здесь они решили открыть собственное дело и построили отель, который в скором назвал Гранд. Данное место славится своей изысканностью и престижным окружением. Здесь отдыхали лишь богачи и влиятельные люди, поэтому Мендоса стали окружены элитным обществом. Главой семейства является мужчина по имени Сантьяго, он делал все возможное, чтобы его семья ни в чём не нуждалась. Однако многие тайны скрыты в отеле Гранд. Сантьяго понимает, что где есть деньги и крупные связи, всегда найдутся места для конфликтов и опасные ситуации. Поэтому, когда в отеле происходят страшные события, то Сантьяго пытается скрыть их от общества. Внезапно в отеле Гранд устраивается молодой парень по имени Хулио. Он поступил на работу официанта и пытается присмотреться к каждому человеку, кто находится в отеле, чтобы выяснить, где делась его родная сестра. По предварительным данным сестра пропала именно из отеля, поэтому Хулио пытается выяснить тайну данного места.



Качество: WEBRip 720p
Формат: MKV

Видео: AVC, 1280 x 720 (1.778), 23.976 fps, ~6000 kbps
Аудио Rus: AC-3, 48 kHz, 2 ch, 192 kbps |LostFilm|
Аудио Eng: E-AC-3, 48 kHz, 6 ch, 256 kbps |Original|
Общее
Уникальный идентификатор : 146195696627683969760382847170129489809 (0x6DFC44594C503A7A7788048E6A54EF91)
Полное имя : E:\_Сериалы\_Сериалы\Гранд Отель\Grand.Hotel.S01.720p.WEBRip.LostFilm\Grand.Hotel.S01E01.720p.WEBRip.LostFilm.mkv
Формат : Matroska
Версия формата : Version 4
Размер файла : 1,91 Гбайт
Продолжительность : 43 м. 1 с.
Общий поток : 6369 Кбит/сек
Дата кодирования : UTC 2019-06-21 13:56:13
Программа кодирования : mkvmerge v34.0.0 ('Sight and Seen') 64-bit
Библиотека кодирования : libebml v1.3.7 + libmatroska v1.5.0

Видео
Идентификатор : 1
Формат : AVC
Формат/Информация : Advanced Video Codec
Профиль формата : High@L3.1
Настройки формата : CABAC / 4 Ref Frames
Параметр CABAC формата : Да
Параметр RefFrames формата : 4 кадра
Идентификатор кодека : V_MPEG4/ISO/AVC
Продолжительность : 43 м. 1 с.
Вид битрейта : Постоянный
Битрейт : 6000 Кбит/сек
Ширина : 1280 пикселей
Высота : 720 пикселей
Соотношение сторон : 16:9
Режим частоты кадров : Постоянный
Частота кадров : 23,976 (24000/1001) кадра/сек
Цветовое пространство : YUV
Субдискретизация насыщенности : 4:2:0
Битовая глубина : 8 бит
Тип развёртки : Прогрессивная
Бит/(Пиксели*Кадры) : 0.272
Размер потока : 1,78 Гбайт (93%)
Язык : English
Default : Да
Forced : Нет
Цветовой диапазон : Limited
Основные цвета : BT.709
Характеристики трансфера : BT.709
Коэффициенты матрицы : BT.709

Аудио #1
Идентификатор : 2
Формат : AC-3
Формат/Информация : Audio Coding 3
Коммерческое название : Dolby Digital
Идентификатор кодека : A_AC3
Продолжительность : 43 м. 1 с.
Вид битрейта : Постоянный
Битрейт : 192 Кбит/сек
Каналы : 2 канала
Channel layout : L R
Частота : 48,0 КГц
Частота кадров : 31,250 кадров/сек (1536 SPF)
Битовая глубина : 16 бит
Метод сжатия : С потерями
Размер потока : 59,1 Мбайт (3%)
Язык : Russian
ServiceKind/String : Complete Main
Default : Нет
Forced : Нет

Аудио #2
Идентификатор : 3
Формат : E-AC-3
Формат/Информация : Enhanced AC-3
Коммерческое название : Dolby Digital Plus
Идентификатор кодека : A_EAC3
Продолжительность : 43 м. 1 с.
Вид битрейта : Постоянный
Битрейт : 256 Кбит/сек
Каналы : 6 каналов
Channel layout : L R C LFE Ls Rs
Частота : 48,0 КГц
Частота кадров : 31,250 кадров/сек (1536 SPF)
Метод сжатия : С потерями
Размер потока : 78,8 Мбайт (4%)
Язык : English
ServiceKind/String : Complete Main
Default : Да
Forced : Нет

Текст
Идентификатор : 4
Формат : UTF-8
Идентификатор кодека : S_TEXT/UTF8
Идентификатор кодека/Информация : UTF-8 Plain Text
Продолжительность : 42 м. 48 с.
Битрейт : 90 бит/сек
ElementCount : 1049
Размер потока : 28,3 Кбайт (0%)
Заголовок : SDH
Язык : English
Default : Нет
Forced : Нет
Раздача ведётся путём добавления новых серий; при каждом добавлении создаётся новый торрент.
Чтобы начать докачку новой серии, пользователям необходимо сделать следующее:
1. остановить скачивание,
2. удалить старый торрент у себя из клиента (старые серии удалять не надо),
3. скачать новый торрент и запустить его у себя в клиенте вместо старого, при этом указать клиенту путь в старую папку, куда и должно происходить скачивание новых серий.

Ваш клиент при этом должен произвести хеширование (проверку) старой папки (если не производит сам - помогите ему сделать это), и будет докачивать только те серии которых у вас ещё нет. Старые серии при этом не удаляются, а продолжают раздаваться!

Eсли вы уже удалили старые серии, то предотвратить повторную закачку старых серий можно, отжав галочку в соответствующих местах при запуске нового торрента. По возможности, желательно не удалять старые серии как можно дольше, чтобы релизёр не столько продолжал раздавать старые серии, а смог сконцентрироваться на новых.

Совет для тех, кто не хочет ждать перехеширования:
Создайте ещё одну папку рядом с папкой сериала (рядом, а не в ней!!!). Каждую новую серию после удачной загрузки копируйте в новую папку так чтобы ваша основная папка всегда была пуста. Когда ваш новый торрент предложит вам закачать все файлы, выберете только последнюю. Для сидирования же укажите адрес новой папки.

Как закачать отдельный файл из торрента или докачать ранее пропущенные файлы торрента!
1. Открыть торрент
2. Снять галки с тех файлов торрента, которые мы не хотим закачивать. Оставляем только на нужных нам файлах (файле).
3. Нажать О.К.

В клиенте utorrent

Инструкция

1) Открыть торрент


2) Снять галки с тех файлов торрента, которые мы не хотим закачивать:

* либо вручную, снимая с каждого файла галку( скрин №1)
* либо, нажав кнопку "Снять метки (Select None)", сняв сразу со всех файлов(скрин №2)
№1

№2

Оставляем только на нужных нам файлах (файле).

3)Нажать О.К
Приятного просмотра!!!pb.wtf



Скачать Гранд Отель через торрент https://i6.imageban.ru/out/2019/06/21/2c2fe92b3e2dc9b2fdf77594a1ad4808.png Скачать фильм Гранд Отель через торрент бесплантно в хорошем качестве Описание:В центре внимания оказывается влиятельная семья Мендоса, которая проживает на Майами Бич. Именно здесь они решили открыть ... 8.8 10 5
Торрент: Зарегистрирован [2019-06-27 08:13] · скачан: 8 раз
Статус: √ проверено
Размер: 3.49 GB
Как cкачать? Как скачать Гранд Отель через торрент | qTorrent


>> Регистрируемся здесь <<






Отзывы и комментарии о схеме читаем и пишем здесь: ---> Отзывы и комментарии о схеме

Новые благодарочки в телеграм довольных пользователей:
скриншот   скриншот   скриншот   скриншот   скриншот
    Дорогой пользователь! Огромная просьба, поблагодарите релизера, оцените раздачу и оставьте свои комментарий, если Вы скачали Гранд Отель через торрент бесплатно! Внесите свою лепту в развитие PiratBit!
    Комментировать посты могут только пользователи прошедшие не сложную регистрацию
    Показать сообщения:    

    Гранд Отель через торрент
    Скачать бесплатно Гранд Отель
    Гранд Отель скачать торрент
    Гранд Отель смотреть онлайн
    Cкачать фильм Гранд Отель бесплатно
    Гранд Отель скачать торрент в хорошем качестве
    Гранд Отель смотреть онлайн бесплатно в хорошем качестве


    Вы не можете начинать темы
    Вы не можете отвечать на сообщения
    Вы не можете редактировать свои сообщения
    Вы не можете удалять свои сообщения
    Вы не можете голосовать в опросах
    Вы не можете прикреплять файлы к сообщениям
    Вы можете скачивать файлы