Мега распродажа FORZA HORIZON 4 ULTIMATE+ВСЕ DLC+ОНЛАЙН всего за 499р. 349 руб. (супер цена). Внимание количество ограничено!!!

iTunes

1+1

iTunes

мы

iTunes

1

1 сезон

Чернобыль

1 сезон

Ральф против интернета

Лицензия

ПШазам

8 сезон

Игра престолов

Лицензия

30
pack

ВАЖНО

!!Акция!!

Alien_RageХит недели

RePack

Resident Evil 21

ИГРА 18+

pack

RePack

Metro:Exodus

!!Акция!!

Alien_Rage

RePack

fifa19

RePack

Assassins Creed: Odyssey

RePack

NEED FOR SPEED™ PAYBACK

3 сезон

9 сезон

Бесстыжие 9 сезон

Все сериалы

все сериалы на PB.wtf

RePack

FAR CRY 5
Ребята, катастрофически не хватает 2730р. для оплаты серверов за ИЮНЬ (всвязи с блокировками трафик упал в 3 раза), 1-2р., выручайте.
  

Криптон / Krypton / Сезон: 2 / Серии: 1-5 из 10 (Метин Хусейн) [2019, фантастика, боевик, драма, приключения, WEB-DL 720p] MVO [Lostfilm] pb.wtf

Криптон через торрент pb.wtf

Раздают: 3 [ 0 KB/s ] Качают: 5 [ 0 KB/s ]
Размер: 6.33 GB | Добавлен: 3 д. назад | Торрент скачан:6 раз
Скачать  

22-06-2019 06:39 Криптон Скачать торрент  

Криптон | Krypton
«There's more to the Legend»
Производство: США
Год выпуска: 2019
Жанр: фантастика, боевик, драма, приключения
Продолжительность: ~ 00:42:00 серияПремьера (мир): 15 марта 2018
Премьера (РФ): 13 июня 2019
Перевод: Профессиональный (многоголосый закадровый) | |LostFilm|
Субтитры: Rus, Eng

Режиссер: Метин Хусейн, Джулиус Рамсей, Марк Роскин

В ролях: Камерон Каффе, Джорджина Кэмпбелл, Йен МакЭлхинни, Эллиот Кауэн, Энн Огбомо, Расмус Хардайкер, Уоллис Дэй, Аарон Пьер, Гордон Александр

Описание:
В центре фантастического сериала — события, происходившие на родной планете мальчика с необычными способностями, который стал Суперменом. Действие разворачивается за несколько десятилетий до гибели планеты. Дед Супермена, всю жизнь веривший в равенство всех жителей планеты Криптон, решает вести непримиримую борьбу с беспорядками и очистить славное имя Элов…



Качество: WEB-DL 720p
Формат: MKV

Видео: AVC, 1280 x 720 (1.778), 23.976 fps, ~4027 kbps
Аудио Rus: AC-3, 48 kHz, 2 ch, 192 kbps |LostFilm|
Аудио Eng: E-AC-3, 48 kHz, 6 ch, 640 kbps |Original|
Общее
Уникальный идентификатор : 328341174597046032145195485752629375289 (0xF70435C36C5D25887E835C84B5C3B139)
Полное имя : E:\_Сериалы\_Сериалы\Криптон\Krypton.S02.WEB-DL.720p.LostFilm\Krypton.S02E01.WEB-DL.720p.LostFilm.mkv
Формат : Matroska
Версия формата : Version 4
Размер файла : 1,45 Гбайт
Продолжительность : 42 м. 38 с.
Общий поток : 4861 Кбит/сек
Дата кодирования : UTC 2019-06-15 04:48:25
Программа кодирования : mkvmerge v34.0.0 ('Sight and Seen') 64-bit
Библиотека кодирования : libebml v1.3.7 + libmatroska v1.5.0

Видео
Идентификатор : 1
Формат : AVC
Формат/Информация : Advanced Video Codec
Профиль формата : High@L3.1
Настройки формата : CABAC / 4 Ref Frames
Параметр CABAC формата : Да
Параметр RefFrames формата : 4 кадра
Идентификатор кодека : V_MPEG4/ISO/AVC
Продолжительность : 42 м. 38 с.
Вид битрейта : Постоянный
Битрейт : 4027 Кбит/сек
Номинальный битрейт : 6000 Кбит/сек
Ширина : 1280 пикселей
Высота : 720 пикселей
Соотношение сторон : 16:9
Режим частоты кадров : Постоянный
Частота кадров : 23,976 (24000/1001) кадра/сек
Цветовое пространство : YUV
Субдискретизация насыщенности : 4:2:0
Битовая глубина : 8 бит
Тип развёртки : Прогрессивная
Бит/(Пиксели*Кадры) : 0.182
Размер потока : 1,20 Гбайт (83%)
Default : Да
Forced : Нет
Цветовой диапазон : Limited
Основные цвета : BT.709
Характеристики трансфера : BT.709
Коэффициенты матрицы : BT.709

Аудио #1
Идентификатор : 2
Формат : AC-3
Формат/Информация : Audio Coding 3
Коммерческое название : Dolby Digital
Идентификатор кодека : A_AC3
Продолжительность : 42 м. 38 с.
Вид битрейта : Постоянный
Битрейт : 192 Кбит/сек
Каналы : 2 канала
Channel layout : L R
Частота : 48,0 КГц
Частота кадров : 31,250 кадров/сек (1536 SPF)
Битовая глубина : 16 бит
Метод сжатия : С потерями
Размер потока : 58,6 Мбайт (4%)
Язык : Russian
ServiceKind/String : Complete Main
Default : Нет
Forced : Нет

Аудио #2
Идентификатор : 3
Формат : E-AC-3
Формат/Информация : Enhanced AC-3
Коммерческое название : Dolby Digital Plus
Идентификатор кодека : A_EAC3
Продолжительность : 42 м. 38 с.
Вид битрейта : Постоянный
Битрейт : 640 Кбит/сек
Каналы : 6 каналов
Channel layout : L R C LFE Ls Rs
Частота : 48,0 КГц
Частота кадров : 31,250 кадров/сек (1536 SPF)
Метод сжатия : С потерями
Размер потока : 195 Мбайт (13%)
Язык : English
ServiceKind/String : Complete Main
Default : Да
Forced : Нет

Текст
Идентификатор : 4
Формат : UTF-8
Идентификатор кодека : S_TEXT/UTF8
Идентификатор кодека/Информация : UTF-8 Plain Text
Продолжительность : 42 м. 12 с.
Битрейт : 75 бит/сек
ElementCount : 831
Размер потока : 23,4 Кбайт (0%)
Заголовок : English (SDH)
Язык : English
Default : Нет
Forced : Нет
Раздача ведётся путём добавления новых серий; при каждом добавлении создаётся новый торрент.
Чтобы начать докачку новой серии, пользователям необходимо сделать следующее:
1. остановить скачивание,
2. удалить старый торрент у себя из клиента (старые серии удалять не надо),
3. скачать новый торрент и запустить его у себя в клиенте вместо старого, при этом указать клиенту путь в старую папку, куда и должно происходить скачивание новых серий.

Ваш клиент при этом должен произвести хеширование (проверку) старой папки (если не производит сам - помогите ему сделать это), и будет докачивать только те серии которых у вас ещё нет. Старые серии при этом не удаляются, а продолжают раздаваться!

Eсли вы уже удалили старые серии, то предотвратить повторную закачку старых серий можно, отжав галочку в соответствующих местах при запуске нового торрента. По возможности, желательно не удалять старые серии как можно дольше, чтобы релизёр не столько продолжал раздавать старые серии, а смог сконцентрироваться на новых.

Совет для тех, кто не хочет ждать перехеширования:
Создайте ещё одну папку рядом с папкой сериала (рядом, а не в ней!!!). Каждую новую серию после удачной загрузки копируйте в новую папку так чтобы ваша основная папка всегда была пуста. Когда ваш новый торрент предложит вам закачать все файлы, выберете только последнюю. Для сидирования же укажите адрес новой папки.

Как закачать отдельный файл из торрента или докачать ранее пропущенные файлы торрента!
1. Открыть торрент
2. Снять галки с тех файлов торрента, которые мы не хотим закачивать. Оставляем только на нужных нам файлах (файле).
3. Нажать О.К.

В клиенте utorrent

Инструкция

1) Открыть торрент


2) Снять галки с тех файлов торрента, которые мы не хотим закачивать:

* либо вручную, снимая с каждого файла галку( скрин №1)
* либо, нажав кнопку "Снять метки (Select None)", сняв сразу со всех файлов(скрин №2)
№1

№2

Оставляем только на нужных нам файлах (файле).

3)Нажать О.К
Приятного просмотра!!!pb.wtf



Скачать Криптон через торрент https://i4.imageban.ru/out/2019/06/15/61edae35e276d5dd91333a041a37f47b.png Скачать фильм Криптон через торрент бесплантно в хорошем качестве Описание:В центре фантастического сериала — события, происходившие на родной планете мальчика с необычными способностями, который стал ... 8.7 10 7
Торрент: Зарегистрирован [2019-07-13 16:54] · скачан: 6 раз
Статус: √ проверено
Размер: 6.33 GB
Как cкачать? Как скачать Криптон через торрент | qTorrent

% Раздел Тема Автор DL S | L
Зарубежные сериалы [ 2.99 GB ] Криптон / Krypton / Сезон: 2 / Серии: 1-5 из 10 [2019 WEB-DLRip] [MVO] killermax2013 Скачать
4 | 2
Зарубежные сериалы [ 14.31 GB ] Криптон / Krypton / Сезон: 2 / Серии: 1-5 из 10 [2019 WEB-DL 1080p] MVO [TVShows] bober100 Скачать
1 | 1


>> Регистрируемся здесь <<






Отзывы и комментарии о схеме читаем и пишем здесь: ---> Отзывы и комментарии о схеме

Новые благодарочки в телеграм довольных пользователей:
скриншот   скриншот   скриншот   скриншот   скриншот
    Дорогой пользователь! Огромная просьба, поблагодарите релизера, оцените раздачу и оставьте свои комментарий, если Вы скачали Криптон через торрент бесплатно! Внесите свою лепту в развитие PiratBit!
    Комментировать посты могут только пользователи прошедшие не сложную регистрацию
    Показать сообщения:    

    Криптон через торрент
    Скачать бесплатно Криптон
    Криптон скачать торрент
    Криптон смотреть онлайн
    Cкачать фильм Криптон бесплатно
    Криптон скачать торрент в хорошем качестве
    Криптон смотреть онлайн бесплатно в хорошем качестве


    Вы не можете начинать темы
    Вы не можете отвечать на сообщения
    Вы не можете редактировать свои сообщения
    Вы не можете удалять свои сообщения
    Вы не можете голосовать в опросах
    Вы не можете прикреплять файлы к сообщениям
    Вы можете скачивать файлы