Всегда рабочее зеркало без VPN и Proxy просто перед .vidak.icu напиши любое слово или цифру, Пример http://m3sz.vidak.icu

MVO

MVO

1 сезон

1

1 сезон

iTunes

1 сезон

13

1 сезон

Deluxe

pack

Рекомендуем

Repack

30

ВАЖНО

RePack

MK11

RePack

jed

RePack

fifa19

RePack

RDR2

RePack

NEED FOR SPEED™ PAYBACK

Кинопоиск HD

6 сезон

 Острые козырьки 6 сезон

Все сериалы

все сериалы на PB.wtf

RePack

FAR CRY 5
  
Magnet ссылка

Последние цари / The Last Czars / Сезон 01 / серии 01-06 из 06 (Адриан МакДауэлл, Гарет Тунли) [2019, документальный, исторический, биография, WEB-DL 1080p] [DUB] + [MVO] pb.wtf

Последние цари через торрент pb.wtf

Размер: 11.65 GB | Добавлен: 3 года 1 мес. назад | Торрент скачан:69 раз
Смотреть онлайн Последние цари | Скачать    Ребята, помогите собрать деньги на оплату серверов!!!

06-07-2019 10:08 Последние цари Скачать торрент  

Последние цари / The Last Czars Год выпуска: 2019
Страна: США
Жанр: документальный, исторический, биография
Продолжительность: 04:25:34
Перевод: Дублированный + профессиональный многоголосый | Netflix
субтитры: русские (форс., полные), английские (SDH)

Режиссер: Адриан МакДауэлл, Гарет Тунли

Описание: Сериал рассказывает о последних годах правления династии Романовых.

rating

качество: WEB-DL 1080p
формат: MKV
Видео: MPEG-4 AVC, ~ 5631 Кбит/с, 1920x1080
Аудио 2: Russian, AC3, 640 kb/s, 48.0 kHz, 6 channels
Аудио 2: English, E-AC3, 640 kb/s, 48.0 kHz, 6 channels
1. Избранный
Царь Николай II вступает на русский престол в 1894 году и отвергает современные идеи, чтобы провозгласить чистое самодержавие. Трагедия знаменует его день коронации.

2. Мальчик
Катастрофическая война России против Японии вызывает гражданские беспорядки. Князю Алексею поставлен диагноз гемофилия, и сибирский мистик Распутин вмешивается в события.

3. Анархия
Влияние Распутина растет. Романовы отступают в пузырь роскоши, в то время как царские войска жестоко подавляют протесты голодающего населения.

4. Война
Первая мировая война зовёт Николая на фронт. Дома, растет гнев из-за высоких жертв и политических интриг Александры и Распутина.

5. Революция
Распутин сгинул, но Николай продолжает свою катастрофическую политику на войне и дома. Лишения толкают народ от беспорядков к революции.

6. Дом Специального Назначения
Царь отрекается от престола, и начинается гражданская война. Судьба семьи Романовых предрешена.
General
Unique ID : 192318890655870377701745649452408232088 (0x90AF4562C8419BFE935C54C56635D898)
Complete name : E:\TheLastCzarsS01\TheLastCzarsS01x01.mkv
Format : Matroska
Format version : Version 4 / Version 2
File size : 1.85 GiB
Duration : 42 min 4 s
Overall bit rate : 6 281 kb/s
Encoded date : UTC 2019-07-06 08:15:22
Writing application : mkvmerge v9.5.0 ('Quiet Fire') 64bit
Writing library : libebml v1.3.4 + libmatroska v1.4.5

Video
ID : 1
Format : AVC
Format/Info : Advanced Video Codec
Format profile : [email protected]
Format settings : CABAC / 3 Ref Frames
Format settings, CABAC : Yes
Format settings, RefFrames : 3 frames
Codec ID : V_MPEG4/ISO/AVC
Duration : 42 min 4 s
Bit rate : 4 876 kb/s
Width : 1 920 pixels
Height : 1 080 pixels
Display aspect ratio : 16:9
Frame rate mode : Constant
Frame rate : 25.000 FPS
Color space : YUV
Chroma subsampling : 4:2:0
Bit depth : 8 bits
Scan type : Progressive
Bits/(Pixel*Frame) : 0.094
Stream size : 1.43 GiB (78%)
Language : English
Default : Yes
Forced : No

Audio #1
ID : 2
Format : E-AC-3
Format/Info : Enhanced Audio Coding 3
Format settings, Endianness : Big
Codec ID : A_EAC3
Duration : 42 min 4 s
Bit rate mode : Constant
Bit rate : 640 kb/s
Channel(s) : 6 channels
Channel positions : Front: L C R, Side: L R, LFE
Sampling rate : 48.0 kHz
Frame rate : 187.500 FPS (256 SPF)
Compression mode : Lossy
Stream size : 193 MiB (10%)
Title : rus
Language : Russian
Service kind : Complete Main
Default : Yes
Forced : No

Audio #2
ID : 3
Format : E-AC-3
Format/Info : Enhanced Audio Coding 3
Format settings, Endianness : Big
Codec ID : A_EAC3
Duration : 42 min 4 s
Bit rate mode : Constant
Bit rate : 640 kb/s
Channel(s) : 6 channels
Channel positions : Front: L C R, Side: L R, LFE
Sampling rate : 48.0 kHz
Frame rate : 187.500 FPS (256 SPF)
Compression mode : Lossy
Stream size : 193 MiB (10%)
Title : eng
Language : English
Service kind : Complete Main
Default : No
Forced : No

Text #1
ID : 4
Format : UTF-8
Codec ID : S_TEXT/UTF8
Codec ID/Info : UTF-8 Plain Text
Title : rusFull
Language : Russian
Default : No
Forced : No

Text #2
ID : 5
Format : UTF-8
Codec ID : S_TEXT/UTF8
Codec ID/Info : UTF-8 Plain Text
Title : engSDH
Language : English
Default : No
Forced : No
скриншот  скриншот  скриншот  
pb.wtf



Скачать Последние цари через торрент https://i106.fastpic.ru/big/2019/0706/69/8603af7fd6a60d137fc9efaeff2afc69.jpg Скачать, смотреть онлайн Последние цари бесплантно в хорошем качестве Описание: Сериал рассказывает о последних годах правления династии Романовых.качество: WEB-DL 1080pформат: MKVВидео: MPEG-4 AVC, ~ 5631 ... 10 10 2
Торрент: Зарегистрирован [2019-07-06 10:08] · скачан: 69 раз
Статус: √ проверено
Размер: 11.65 GB
Как cкачать? Как скачать Последние цари через торрент | UTorrent

28-11-2019 20:33  

Отключить вcю реклaмy на сайте

06-07-2019 12:24 Последние цари Скачать торрент  

У них Мавзолей присутствует в 1905 году
Ленин был, Ленин есть, Ленин будет есть, а-ха-ха.pb.wtf



06-07-2019 12:35 Последние цари Скачать торрент  

очередная псевдоисторическая клюква...pb.wtf



    Дорогой пользователь! Огромная просьба, поблагодарите релизера, оцените раздачу и оставьте свои комментарий, если Вы скачали Последние цари через торрент бесплатно!
    Комментировать посты могут только пользователи прошедшие не сложную регистрацию
    Показать сообщения:    

    Последние цари через торрент
    Скачать бесплатно Последние цари
    Последние цари скачать торрент
    Последние цари смотреть онлайн
    Cкачать фильм Последние цари бесплатно
    Последние цари скачать торрент в хорошем качестве
    Последние цари смотреть онлайн бесплатно в хорошем качестве


    Вы не можете начинать темы
    Вы не можете отвечать на сообщения
    Вы не можете редактировать свои сообщения
    Вы не можете удалять свои сообщения
    Вы не можете голосовать в опросах
    Вы не можете прикреплять файлы к сообщениям
    Вы можете скачивать файлы