Ссылка на приватное зеркало нашего сайта всего за 1$. Внимание количество ограничено!!!

2 сезон

iTunes

1 сезон

1

2 сезон

2 сезон

iTunes

1 сезон

RePack

30

Ultimate

ВАЖНО

ИГРА 18+

pack

RePack

MK11
pack

Забери бонус

RePack

jed

!!Акция!!

Alien_Rage

RePack

fifa19

RePack

Assassins Creed: Odyssey

RePack

NEED FOR SPEED™ PAYBACK

4 сезон

9 сезон

Бесстыжие 9 сезон

Все сериалы

все сериалы на PB.wtf

RePack

FAR CRY 5
  

Отставник. Позывной «бродяга» / Серии: 1-2 из 2 [2018, Детектив, криминал, боевик, WEB-DL 1080p] pb.wtf

Отставник. Позывной «бродяга» через торрент pb.wtf

Размер: 4.17 GB | Добавлен: 1 год 4 мес. назад | Торрент скачан:46 раз
Скачать  

10-07-2019 15:14 Отставник. Позывной «бродяга» Скачать торрент  

Отставник. Позывной «бродяга» Год выпуска: 2018
Страна: Россия
Жанр: Детектив, криминал, боевик
Продолжительность: 00:49:00
Перевод: Не требуется
Субтитры: отсутствуют



В ролях:

Игорь Бочкин, Анна Табанина, Леонид Ворон, Александр Аравушкин, Алексей Байдаков, Роман Агеев, Екатерина Кукуй, Владимир Петров, Артур Харитоненко

Описание:

Подполковник на пенсии Юрий Жуковский — холостяк со стажем, уже давно привык к одиночеству и рутинной жизни. Привычное однообразие рушится, когда он неожиданно встречает бывшего начальника — генерала Терентьева, который отправляет его, бывшего командира спецназа, с заданием в военную часть города Зареченска. Там Юрию предстоит разобраться в обстоятельствах трагедии — гибели рядового солдата, решившегося на побег из части. Жуковский, несмотря на сопротивление со стороны командования и комиссии, начинает собственное расследование этого дела и попутно узнает о криминальной стороне жизни военных в городе.

Качество: WEB-DL 1080p
Формат: MKV

Видео: 1920х1080 (16:9), 25 fps, AVC MPEG-4 (x264), High@L4.0 ~ 6000 kbps avg, 0.096 bit/pixel
Аудио: 48 kHz, AC3, 2 ch, 192 kbps avg
скриншот  скриншот  скриншот  скриншот  

Общее
Уникальный идентификатор : 190971286185814168301886519478048432795 (0x8FABBB5B117550D9A140D7F5AF1EA29B)
Полное имя : C:\Otstavnik.Pozyvnoj.Brodjaga.2017.WEB-DL.(1080p).Nikolspup\Otstavnik.Pozyvnoj.Brodjaga.(01.seriya.iz.02).2017.WEB-DL.(1080p).Nikolspup.mkv
Формат : Matroska
Версия формата : Version 4 / Version 2
Размер файла : 2,08 Гбайт
Продолжительность : 48 м. 19 с.
Режим общего битрейта : Постоянный
Общий поток : 6175 Кбит/сек
Дата кодирования : UTC 2018-02-25 06:39:41
Программа кодирования : mkvmerge v7.8.0 ('River Man') 32bit built on Apr 3 2015 12:11:22
Библиотека кодирования : libebml v1.3.1 + libmatroska v1.4.2

Видео
Идентификатор : 1
Формат : AVC
Формат/Информация : Advanced Video Codec
Профиль формата : High@L4.1
Параметр CABAC формата : Нет
Параметр RefFrames формата : 2 кадра
Идентификатор кодека : V_MPEG4/ISO/AVC
Продолжительность : 48 м. 19 с.
Вид битрейта : Постоянный
Битрейт : 6000 Кбит/сек
Ширина : 1920 пикселей
Высота : 1080 пикселей
Соотношение сторон : 16:9
Режим частоты кадров : Постоянный
Частота кадров : 25,000 кадров/сек
Стандарт вещания : PAL
Цветовое пространство : YUV
Субдискретизация насыщенности : 4:2:0
Битовая глубина : 8 бит
Тип развёртки : Прогрессивная
Бит/(Пиксели*Кадры) : 0.116
Размер потока : 1,98 Гбайт (95%)
Default : Нет
Forced : Нет
Цветовой диапазон : Limited
Основные цвета : BT.709
Характеристики трансфера : BT.709
Коэффициенты матрицы : BT.709

Аудио
Идентификатор : 2
Формат : AC-3
Формат/Информация : Audio Coding 3
Расширение режима : CM (complete main)
Параметр Endianness формата : Big
Идентификатор кодека : A_AC3
Продолжительность : 48 м. 19 с.
Вид битрейта : Постоянный
Битрейт : 192 Кбит/сек
Каналы : 2 канала
Расположение каналов : Front: L R
Частота : 48,0 КГц
Частота кадров : 31,250 кадров/сек (1536 spf)
Метод сжатия : С потерями
Размер потока : 66,4 Мбайт (3%)
Язык : Russian
Default : Да
Forced : Да

pb.wtf



Скачать Отставник. Позывной «бродяга» через торрент http://i100.fastpic.ru/big/2018/0224/0e/4d6e354c6c7a6e122145b3109469f10e.jpg Скачать фильм Отставник. Позывной «бродяга» через торрент бесплантно в хорошем качестве Описание: Подполковник на пенсии Юрий Жуковский — холостяк со стажем, уже давно привык к одиночеству и рутинной жизни. Привычное ... 10 10 5
Торрент: Зарегистрирован [2019-07-10 15:14] · скачан: 46 раз
Статус: √ проверено
Размер: 4.17 GB
Как cкачать? Как скачать Отставник. Позывной «бродяга» через торрент | qTorrent

28-11-2019 20:33  

Отключить всю рекламу на сайте

    Дорогой пользователь! Огромная просьба, поблагодарите релизера, оцените раздачу и оставьте свои комментарий, если Вы скачали Отставник. Позывной «бродяга» через торрент бесплатно! Внесите свою лепту в развитие PiratBit!
    Комментировать посты могут только пользователи прошедшие не сложную регистрацию
    Показать сообщения:    

    Отставник. Позывной «бродяга» через торрент
    Скачать бесплатно Отставник. Позывной «бродяга»
    Отставник. Позывной «бродяга» скачать торрент
    Отставник. Позывной «бродяга» смотреть онлайн
    Cкачать фильм Отставник. Позывной «бродяга» бесплатно
    Отставник. Позывной «бродяга» скачать торрент в хорошем качестве
    Отставник. Позывной «бродяга» смотреть онлайн бесплатно в хорошем качестве


    Вы не можете начинать темы
    Вы не можете отвечать на сообщения
    Вы не можете редактировать свои сообщения
    Вы не можете удалять свои сообщения
    Вы не можете голосовать в опросах
    Вы не можете прикреплять файлы к сообщениям
    Вы можете скачивать файлы