новый адрес пиратбит piratbit
Мега распродажа FORZA HORIZON 4 ULTIMATE+ВСЕ DLC+ОНЛАЙН всего за 499р. 349 руб. (супер цена). Внимание количество ограничено!!!

iTunes

1+1

iTunes

мы

iTunes

1

iTunes

Чернобыль

iTunes

Ральф против интернета

Лицензия

ПШазам

Лицензия

Игра престолов

Лицензия

30
pack

ВАЖНО

!!Акция!!

Alien_RageХит недели

RePack

Resident Evil 21

ИГРА 18+

pack

RePack

Metro:Exodus

!!Акция!!

Alien_Rage

RePack

fifa19

RePack

Assassins Creed: Odyssey

RePack

NEED FOR SPEED™ PAYBACK

3 сезон

9 сезон

Бесстыжие 9 сезон

Все сериалы

все сериалы на PB.wtf

RePack

FAR CRY 5
Ребята, катастрофически не хватает 1900р. для оплаты серверов за Октябрь (всвязи с блокировками трафик упал в 3 раза), 1-2р., выручайте.
  

С меня хватит! / Falling Down (Джоэл Шумахер) [1993, драма, криминал, триллер, BDRip 720p by msltel] DUB, MVO, 2 x DVO, 5 x AVO pb.wtf

С меня хватит! через торрент pb.wtf

Размер: 5.84 GB | Добавлен: 4 мес. 1 д. назад | Торрент скачан:54 раза
Скачать  

11-07-2019 06:53 С меня хватит! Скачать торрент  

Название: С меня хватит!
Оригинальное название: Falling Down
Год выпуска: 1993
Страна: США, Франция, Великобритания
Жанр: драма, криминал, триллер
Продолжительность: 01:52:36
Перевод: дублированный, профессиональный многоголосый, профессиональный двухголосый, авторский

Режиссер: Джоэл Шумахер
В ролях: Майкл Дуглас, Роберт Дювалл, Барбара Хёрши, Тьюзди Уэлд, Рэйчел Тикотин, Фредерик Форрест, Лоис Смит, Рэймонд Дж. Бэрри, Д.В. Моффетт, Стив Парк, Джеймс Кин, Кимберли Скотт, Макон МакКалман, Эбби Роу Смит, Джои Хоуп Сингер, Майкл Пол Чан, Ричард Монтойя, Брюс Битти, Мэттью Сакс, Агустин Родригес, Эдди Фриаш, Пэт Романо

О фильме: В центре фильма Фостер, который, совершая ряд насильственных преступлений, перемещается по Лос-Анджелесу в попытках добраться до дома бывшей жены, чтобы отпраздновать день рождения своей дочери. По пути ряд встреч — как тривиальных, так и неожиданных — заставляют его реагировать насилием и задумываться о жизни, бедности, экономике и коммерциализации. Мартин Прендергаст, сержант полиции Лос-Анджелеса, который сталкивается со своими собственными жизненными разочарованиями, в день своего выхода на пенсию выслеживает Фостера...



Качество: BDRip 720p
Формат: MKV
Видео: MPEG-4 AVC, 4289 Кбит/с, 1280x534, 23.976 кадр/с
Аудио 1: русский, AC3, 192 kbps, 2 ch, 48 kHz [дублированный, Ленфильм]
Аудио 2: русский, AC3, 192 kbps, 2 ch, 48 kHz [закадровый многоголосый, Гемини-Фильм]
Аудио 3: русский, AC3, 192 kbps, 2 ch, 48 kHz [закадровый двухголосый, OPT]
Аудио 4: русский, AC3, 192 kbps, 2 ch, 48 kHz [закадровый двухголосый, Твистер]
Аудио 5: русский, AC3, 192 kbps, 2 ch, 48 kHz [авторский, Алексей Багичев]
Аудио 6: русский, AC3, 256 kbps, 2 ch, 48 kHz [авторский, Василий Горчаков]
Аудио 7: русский, AC3, 640 kbps, 2 ch, 48 kHz [авторский, Дмитрий Есарев]
Аудио 8: русский, AC3, 192 kbps, 2 ch, 48 kHz [авторский, Юрий Живов]
Аудио 9: русский, AC3, 640 kbps, 2 ch, 48 kHz [авторский, Алексей Михалёв]
Аудио 10: английский, AC3, 448 kbps, 2 ch, 48 kHz [оригинал]
Субтитры 1: русские (Твистер)
Субтитры 2: русские (Uncle KiLler)
Субтитры 3: русские (Гемини-фильм)
Субтитры 4: английские
Главы/чаптеры
Общее
Уникальный идентификатор : 185455681394012195710881258246325364417 (0x8B85770B3EEA253CA5078E0A66D366C1)
Полное имя : D:\Video\С меня хватит.1993.BDRip 720p by msltel.mkv
Формат : Matroska
Версия формата : Version 4
Размер файла : 5,84 Гбайт
Продолжительность : 1 ч. 52 м.
Общий поток : 7430 Кбит/сек
Название фильма : Rip by msltel
Дата кодирования : UTC 2019-07-11 04:33:20
Программа кодирования : mkvmerge v8.2.0 ('World of Adventure') 64bit
Библиотека кодирования : libebml v1.3.1 + libmatroska v1.4.2

Видео
Идентификатор : 1
Формат : AVC
Формат/Информация : Advanced Video Codec
Профиль формата : High@L4.1
Настройки формата : CABAC / 9 Ref Frames
Параметр CABAC формата : Да
Параметр RefFrames формата : 9 кадров
Идентификатор кодека : V_MPEG4/ISO/AVC
Продолжительность : 1 ч. 52 м.
Битрейт : 4289 Кбит/сек
Ширина : 1280 пикселей
Высота : 534 пикселя
Соотношение сторон : 2,40:1
Режим частоты кадров : Постоянный
Частота кадров : 23,976 (24000/1001) кадра/сек
Цветовое пространство : YUV
Субдискретизация насыщенности : 4:2:0
Битовая глубина : 8 бит
Тип развёртки : Прогрессивная
Бит/(Пиксели*Кадры) : 0.262
Размер потока : 3,37 Гбайт (58%)
Библиотека кодирования : x264 core 157 r2935 545de2f
Настройки программы : cabac=1 / ref=9 / deblock=1:-2:-2 / analyse=0x3:0x113 / me=umh / subme=11 / psy=1 / psy_rd=1.00:0.15 / mixed_ref=1 / me_range=32 / chroma_me=1 / trellis=2 / 8x8dct=1 / cqm=0 / deadzone=21,11 / fast_pskip=0 / chroma_qp_offset=-3 / threads=6 / lookahead_threads=1 / sliced_threads=0 / nr=0 / decimate=1 / interlaced=0 / bluray_compat=0 / constrained_intra=0 / bframes=7 / b_pyramid=2 / b_adapt=2 / b_bias=0 / direct=1 / weightb=1 / open_gop=0 / weightp=2 / keyint=230 / keyint_min=23 / scenecut=40 / intra_refresh=0 / rc_lookahead=40 / rc=crf / mbtree=1 / crf=17.7 / qcomp=0.60 / qpmin=0 / qpmax=69 / qpstep=4 / vbv_maxrate=50000 / vbv_bufsize=62500 / crf_max=0.0 / nal_hrd=none / filler=0 / ip_ratio=1.40 / aq=1:1.00
Язык : English
Default : Да
Forced : Нет

Аудио #1
Идентификатор : 2
Формат : AC-3
Формат/Информация : Audio Coding 3
Коммерческое название : Dolby Digital
Идентификатор кодека : A_AC3
Продолжительность : 1 ч. 52 м.
Вид битрейта : Постоянный
Битрейт : 192 Кбит/сек
Каналы : 2 канала
ChannelLayout : L R
Частота : 48,0 КГц
Частота кадров : 31,250 кадров/сек (1536 SPF)
Битовая глубина : 16 бит
Метод сжатия : С потерями
Размер потока : 155 Мбайт (3%)
Заголовок : DUB Ленфильм
Язык : Russian
ServiceKind/String : Complete Main
Default : Да
Forced : Нет

Аудио #2
Идентификатор : 3
Формат : AC-3
Формат/Информация : Audio Coding 3
Коммерческое название : Dolby Digital
Идентификатор кодека : A_AC3
Продолжительность : 1 ч. 52 м.
Вид битрейта : Постоянный
Битрейт : 192 Кбит/сек
Каналы : 2 канала
ChannelLayout : L R
Частота : 48,0 КГц
Частота кадров : 31,250 кадров/сек (1536 SPF)
Битовая глубина : 16 бит
Метод сжатия : С потерями
Размер потока : 155 Мбайт (3%)
Заголовок : MVO Гемини-Фильм
Язык : Russian
ServiceKind/String : Complete Main
Default : Нет
Forced : Нет

Аудио #3
Идентификатор : 4
Формат : AC-3
Формат/Информация : Audio Coding 3
Коммерческое название : Dolby Digital
Идентификатор кодека : A_AC3
Продолжительность : 1 ч. 52 м.
Вид битрейта : Постоянный
Битрейт : 192 Кбит/сек
Каналы : 2 канала
ChannelLayout : L R
Частота : 48,0 КГц
Частота кадров : 31,250 кадров/сек (1536 SPF)
Битовая глубина : 16 бит
Метод сжатия : С потерями
Размер потока : 155 Мбайт (3%)
Заголовок : DVO OPT
Язык : Russian
ServiceKind/String : Complete Main
Default : Нет
Forced : Нет

Аудио #4
Идентификатор : 5
Формат : AC-3
Формат/Информация : Audio Coding 3
Коммерческое название : Dolby Digital
Идентификатор кодека : A_AC3
Продолжительность : 1 ч. 52 м.
Вид битрейта : Постоянный
Битрейт : 192 Кбит/сек
Каналы : 2 канала
ChannelLayout : L R
Частота : 48,0 КГц
Частота кадров : 31,250 кадров/сек (1536 SPF)
Битовая глубина : 16 бит
Метод сжатия : С потерями
Размер потока : 155 Мбайт (3%)
Заголовок : DVO Твистер
Язык : Russian
ServiceKind/String : Complete Main
Default : Нет
Forced : Нет

Аудио #5
Идентификатор : 6
Формат : AC-3
Формат/Информация : Audio Coding 3
Коммерческое название : Dolby Digital
Идентификатор кодека : A_AC3
Продолжительность : 1 ч. 52 м.
Вид битрейта : Постоянный
Битрейт : 192 Кбит/сек
Каналы : 2 канала
ChannelLayout : L R
Частота : 48,0 КГц
Частота кадров : 31,250 кадров/сек (1536 SPF)
Битовая глубина : 16 бит
Метод сжатия : С потерями
Размер потока : 155 Мбайт (3%)
Заголовок : Алексей Багичев
Язык : Russian
ServiceKind/String : Complete Main
Default : Нет
Forced : Нет

Аудио #6
Идентификатор : 7
Формат : AC-3
Формат/Информация : Audio Coding 3
Коммерческое название : Dolby Digital
Идентификатор кодека : A_AC3
Продолжительность : 1 ч. 52 м.
Вид битрейта : Постоянный
Битрейт : 256 Кбит/сек
Каналы : 2 канала
ChannelLayout : L R
Частота : 48,0 КГц
Частота кадров : 31,250 кадров/сек (1536 SPF)
Битовая глубина : 16 бит
Метод сжатия : С потерями
Размер потока : 206 Мбайт (3%)
Заголовок : Василий Горчаков
Язык : Russian
ServiceKind/String : Complete Main
Default : Нет
Forced : Нет

Аудио #7
Идентификатор : 8
Формат : AC-3
Формат/Информация : Audio Coding 3
Коммерческое название : Dolby Digital
Идентификатор кодека : A_AC3
Продолжительность : 1 ч. 52 м.
Вид битрейта : Постоянный
Битрейт : 640 Кбит/сек
Каналы : 2 канала
ChannelLayout : L R
Частота : 48,0 КГц
Частота кадров : 31,250 кадров/сек (1536 SPF)
Битовая глубина : 16 бит
Метод сжатия : С потерями
Размер потока : 515 Мбайт (9%)
Заголовок : Дмитрий Есарев
Язык : Russian
ServiceKind/String : Complete Main
Default : Нет
Forced : Нет

Аудио #8
Идентификатор : 9
Формат : AC-3
Формат/Информация : Audio Coding 3
Коммерческое название : Dolby Digital
Идентификатор кодека : A_AC3
Продолжительность : 1 ч. 52 м.
Вид битрейта : Постоянный
Битрейт : 192 Кбит/сек
Каналы : 2 канала
ChannelLayout : L R
Частота : 48,0 КГц
Частота кадров : 31,250 кадров/сек (1536 SPF)
Битовая глубина : 16 бит
Метод сжатия : С потерями
Размер потока : 155 Мбайт (3%)
Заголовок : Юрий Живов
Язык : Russian
ServiceKind/String : Complete Main
Default : Нет
Forced : Нет

Аудио #9
Идентификатор : 10
Формат : AC-3
Формат/Информация : Audio Coding 3
Коммерческое название : Dolby Digital
Идентификатор кодека : A_AC3
Продолжительность : 1 ч. 52 м.
Вид битрейта : Постоянный
Битрейт : 640 Кбит/сек
Каналы : 2 канала
ChannelLayout : L R
Частота : 48,0 КГц
Частота кадров : 31,250 кадров/сек (1536 SPF)
Битовая глубина : 16 бит
Метод сжатия : С потерями
Размер потока : 515 Мбайт (9%)
Заголовок : Алексей Михалёв
Язык : Russian
ServiceKind/String : Complete Main
Default : Нет
Forced : Нет

Аудио #10
Идентификатор : 11
Формат : AC-3
Формат/Информация : Audio Coding 3
Коммерческое название : Dolby Digital
Идентификатор кодека : A_AC3
Продолжительность : 1 ч. 52 м.
Вид битрейта : Постоянный
Битрейт : 448 Кбит/сек
Каналы : 2 канала
ChannelLayout : L R
Частота : 48,0 КГц
Частота кадров : 31,250 кадров/сек (1536 SPF)
Битовая глубина : 16 бит
Метод сжатия : С потерями
Размер потока : 361 Мбайт (6%)
Заголовок : original
Язык : English
ServiceKind/String : Complete Main
Default : Нет
Forced : Нет

Текст #1
Идентификатор : 12
Формат : UTF-8
Идентификатор кодека : S_TEXT/UTF8
Идентификатор кодека/Информация : UTF-8 Plain Text
Продолжительность : 1 ч. 48 м.
Битрейт : 85 бит/сек
ElementCount : 1153
Размер потока : 67,7 Кбайт (0%)
Заголовок : русские Твистер
Язык : Russian
Default : Нет
Forced : Нет

Текст #2
Идентификатор : 13
Формат : UTF-8
Идентификатор кодека : S_TEXT/UTF8
Идентификатор кодека/Информация : UTF-8 Plain Text
Продолжительность : 1 ч. 48 м.
Битрейт : 94 бит/сек
ElementCount : 1460
Размер потока : 75,0 Кбайт (0%)
Заголовок : русские Uncle KiLler
Язык : Russian
Default : Нет
Forced : Нет

Текст #3
Идентификатор : 14
Формат : UTF-8
Идентификатор кодека : S_TEXT/UTF8
Идентификатор кодека/Информация : UTF-8 Plain Text
Продолжительность : 1 ч. 48 м.
Битрейт : 84 бит/сек
ElementCount : 1174
Размер потока : 66,9 Кбайт (0%)
Заголовок : rus Гемини-фильм
Язык : Russian
Default : Нет
Forced : Нет

Текст #4
Идентификатор : 15
Формат : UTF-8
Идентификатор кодека : S_TEXT/UTF8
Идентификатор кодека/Информация : UTF-8 Plain Text
Продолжительность : 1 ч. 47 м.
Битрейт : 59 бит/сек
ElementCount : 1463
Размер потока : 47,2 Кбайт (0%)
Заголовок : английские
Язык : English
Default : Нет
Forced : Нет

Меню
00:00:00.000 : en:Heavy Traffic (Credits)
00:06:55.832 : en:My Rights As a Consumer
00:12:58.486 : en:The Desk Jockey's Last Day
00:15:56.538 : en:Love and London Bridge
00:17:59.787 : en:Territorial Dispute
00:22:01.862 : en:Mr. Lee's Statement
00:24:19.875 : en:Ganging Up on D-Fens
00:29:44.866 : en:Farewell Talk with the Captain
00:32:48.091 : en:A Propensity for Violence
00:36:02.493 : en:A Choice of Bags
00:38:54.540 : en:A White Guy in Gangland?
00:41:06.547 : en:Late for Breakfast
00:45:50.122 : en:Could Have Been Anything
00:48:52.846 : en:Not Economically Viable
00:52:01.159 : en:Out of Order
00:52:32.065 : en:Duelling Phone Calls
00:55:06.469 : en:Nick's Pitch
00:58:28.546 : en:"All the Guns in the...World"
01:00:52.440 : en:Nick's Back Room: "I'm with You"
01:06:30.319 : en:Pretending He's A Cop
01:09:09.228 : en:The Other Side of the Moon
01:11:22.194 : en:"D-Fens!"
01:13:26.276 : en:Something to Fix
01:16:58.822 : en:Glass House
01:18:44.261 : en:Passing Through
01:21:37.017 : en:The News From Work
01:24:10.503 : en:Obsolete; Like It Was Before
01:28:17.500 : en:Two Homes in Turmoil
01:34:46.430 : en:Officer Down
01:37:22.294 : en:The Pier: All Points Converge
01:42:10.707 : en:"I'm the Bad Guy?"
01:46:38.558 : en:Still a Cop
01:49:02.536 : en:End Credits
pb.wtf



Скачать С меня хватит! через торрент https://c.radikal.ru/c40/1907/e6/20771b5adb79.jpg Скачать фильм С меня хватит! через торрент бесплантно в хорошем качестве О фильме: В центре фильма Фостер, который, совершая ряд насильственных преступлений, перемещается по Лос-Анджелесу в попытках добраться до ... 10 10 7
Info! Золотая раздача, скачанное не засчитывается.
Торрент: Зарегистрирован [2019-07-11 06:53] · скачан: 54 раз
Статус: √ проверено
Размер: 5.84 GB
Как cкачать? Как скачать С меня хватит! через торрент | qTorrent

% Раздел Тема Автор DL S | L
Фильмы [HD 720p, 1080p] (Хороший звук DUB, MVO) [ 12.05 GB ] С меня хватит! / Falling Down [1993 BDRip 1080p by msltel] DUB MVO 2 x DVO 5 x AVO msltel Скачать
2 | 0


>> Регистрируемся здесь <<






Отзывы и комментарии о схеме читаем и пишем здесь: ---> Отзывы и комментарии о схеме

Новые благодарочки в телеграм довольных пользователей:
скриншот   скриншот   скриншот   скриншот   скриншот

11-07-2019 09:14 С меня хватит! Скачать торрент  

Шикарный фильм ... после его показа в России в моду вошёл нож-бабочка .pb.wtf



11-07-2019 09:19 С меня хватит! Скачать торрент  

CTEHbKA писал(а):

Шикарный фильм ... после его показа в России в моду вошёл нож-бабочка .

Да раньше наверноpb.wtf



11-07-2019 09:53 С меня хватит! Скачать торрент  

Отличный фильм. Смотрел в 90-х на видеокассете, пару месяцев назад пересматривал в хорошем качестве и понравилось даже больше, чем когда был подростком.pb.wtf



11-07-2019 12:23 С меня хватит! Скачать торрент  

всегда актуален - всегда популярен. 20 из 10pb.wtf



    Дорогой пользователь! Огромная просьба, поблагодарите релизера, оцените раздачу и оставьте свои комментарий, если Вы скачали С меня хватит! через торрент бесплатно! Внесите свою лепту в развитие PiratBit!
    Комментировать посты могут только пользователи прошедшие не сложную регистрацию
    Показать сообщения:    

    С меня хватит! через торрент
    Скачать бесплатно С меня хватит!
    С меня хватит! скачать торрент
    С меня хватит! смотреть онлайн
    Cкачать фильм С меня хватит! бесплатно
    С меня хватит! скачать торрент в хорошем качестве
    С меня хватит! смотреть онлайн бесплатно в хорошем качестве


    Вы не можете начинать темы
    Вы не можете отвечать на сообщения
    Вы не можете редактировать свои сообщения
    Вы не можете удалять свои сообщения
    Вы не можете голосовать в опросах
    Вы не можете прикреплять файлы к сообщениям
    Вы можете скачивать файлы