Доктор Стрэндж

Лицензия

Добыча

MVO

Дом дракона

1 сезон

Тор

Лицензия

Мэверик

Лицензия

Там, где раки поют

MVO

Властелин колец

1 сезон

Ultimate

pack

Рекомендуем

30

Repack

ВАЖНО

ВАЖНО

Ghostwire

RePack

jed

RePack

nioh2

RePack

RDR2

RePack

NEED FOR SPEED™ PAYBACK

RePack

скачать торрент

Кинопоиск HD

Острые козырьки 6 сезон

6 сезон

FAR CRY 6

RePack

скачать торрент

Лицензия

скачать торрент

MVO

1

1 сезон

скачать торрент

1 сезон

скачать торрент

Лицензия

  

После нашей эры / After Earth (М. Найт Шьямалан) [2013, фантастика, приключения, боевик, UHD WEBRip 2160p] [SDR] DUB (rus, ukr) + AVO [В.Горчаков]

После нашей эры через торрент pb.wtf

Размер: 20.77 GB | Добавлен: 3 года 2 мес. назад | Торрент скачан:40 раз
Смотреть онлайн После нашей эры | Скачать   

16-07-2019 02:06 После нашей эры Скачать торрент  

После нашей эры / After Earth««Danger is real. Fear is a choice»»

Год выпуска: 2013
Страна: США
Жанр: фантастика, приключения, боевик
Продолжительность: 01:39:42
Перевод: Дублированный, авторский
Субтитры: Русские, английские
Режиссер: М. Найт Шьямалан
В ролях:

Джейден Смит (Kitai Raige), Уилл Смит (Cypher Raige), Софи Оконедо (Faia Raige), Зои Кравиц (Senshi Raige), Гленн Моршауэр (Commander Velan), Кристофер Хивью (Security Chief), Саша Дхаван (Hesper Pilot), Крис Гир (Hesper Navigator), Диего Клаттенхофф (Veteran Ranger), Дэвид Денман (Private McQuarrie), Линкольн Льюис (Running Cadet), Джейден Мартин (Nine-Year-Old Kitai)
Описание:
События разворачиваются через тысячу лет после катастрофы, вынудившей человечество покинуть Землю. Новым домом становится планета под названием Нова Прайм. Легендарный генерал Сайфер Рейдж возвращается с очередного боевого задания в семью, которая раньше обходилась без его родительского внимания, чтобы стать отцом своему 13-летнему сыну Китаю. Во время астероидной бури летательный аппарат с папой и сыном на борту терпит крушение, падая на незнакомую и опасную Землю. И пока Рейдж-старший на последнем дыхании лежит среди обломков своего корабля, сын должен пересечь враждебный ландшафт, чтобы запустить их спасательный маячок. Ни о чем большем юноша в своей жизни не мечтал: быть солдатом, как отец, - его заветное желание. Сегодня у него есть шанс проявить себя.
Рейтинг:

MPAA: PG-13 - Детям до 13 лет просмотр не желателен
Качество: UHD WEBRip 2160p
Формат: MKV
Видео: MPEG-4 AVC, 25.5 Мбит/с, 3840x1608, 23.976 кадр/с
Аудио #1: 48 kHz, AC3, 6ch, ~640.00 kbps avg /RUS/ |Дубляж, Blu-ray CEE|
Аудио #2: 48 kHz, DTS, 6ch, ~1510.00 kbps avg /RUS/ Одноголосый закадровый, В.Горчаков
Аудио #3: 48 kHz, AC3, 6ch, ~640.00 kbps avg /UKR/ |Дубляж, Blu-ray CEE|
Аудио #4: 48 kHz, DTS, 6ch, ~1510.00 kbps avg /ENG/ Оригинал
Навигация по главам: есть

Complete name : E:\Movies\After.Earth.2013.2160p.WEBRip.DTS.x264-SHD13.mkv
Format : Matroska
Format version : Version 4
File size : 20.8 GiB
Duration : 1 h 39 min
Overall bit rate : 29.8 Mb/s
Movie name : After.Earth.2013.2160p.WEBRip.DTS.x264-SHD13
Encoded date : UTC 2019-07-14 19:50:25
Writing application : mkvmerge v34.0.0 ('Sight and Seen') 64-bit
Writing library : libebml v1.3.7 + libmatroska v1.5.0
Attachments : poster.jpg

Video
ID : 1
Format : AVC
Format/Info : Advanced Video Codec
Format profile : [email protected]
Format settings : CABAC / 5 Ref Frames
Format settings, CABAC : Yes
Format settings, Reference : 5 frames
Codec ID : V_MPEG4/ISO/AVC
Duration : 1 h 39 min
Bit rate : 25.5 Mb/s
Width : 3 840 pixels
Height : 1 608 pixels
Display aspect ratio : 2.40:1
Frame rate mode : Constant
Frame rate : 23.976 (24000/1001) FPS
Color space : YUV
Chroma subsampling : 4:2:0
Bit depth : 8 bits
Scan type : Progressive
Bits/(Pixel*Frame) : 0.172
Stream size : 17.8 GiB (86%)
Title : After.Earth.2013.2160p.WEBRip.DTS.x264-SHD13
Writing library : x264 core 157 r2969 d4099dd
Encoding settings : cabac=1 / ref=5 / deblock=1:-3:-3 / analyse=0x3:0x133 / me=umh / subme=11 / psy=1 / psy_rd=1.00:0.10 / mixed_ref=1 / me_range=48 / chroma_me=1 / trellis=2 / 8x8dct=1 / cqm=0 / deadzone=21,11 / fast_pskip=0 / chroma_qp_offset=-3 / threads=42 / lookahead_threads=7 / sliced_threads=0 / nr=0 / decimate=0 / interlaced=0 / bluray_compat=0 / constrained_intra=0 / bframes=8 / b_pyramid=2 / b_adapt=2 / b_bias=0 / direct=3 / weightb=1 / open_gop=0 / weightp=2 / keyint=240 / keyint_min=24 / scenecut=40 / intra_refresh=0 / rc=crf / mbtree=0 / crf=18.7 / qcomp=0.60 / qpmin=0 / qpmax=69 / qpstep=4 / ip_ratio=1.40 / pb_ratio=1.30 / aq=1:1.00
Language : Russian
Default : Yes
Forced : No

Audio #1
ID : 2
Format : AC-3
Format/Info : Audio Coding 3
Commercial name : Dolby Digital
Codec ID : A_AC3
Duration : 1 h 39 min
Bit rate mode : Constant
Bit rate : 640 kb/s
Channel(s) : 6 channels
Channel layout : L R C LFE Ls Rs
Sampling rate : 48.0 kHz
Frame rate : 31.250 FPS (1536 SPF)
Bit depth : 16 bits
Compression mode : Lossy
Stream size : 456 MiB (2%)
Title : DUB- Blu-ray CEE
Language : Russian
Service kind : Complete Main
Default : Yes
Forced : No

Audio #2
ID : 3
Format : DTS
Format/Info : Digital Theater Systems
Codec ID : A_DTS
Duration : 1 h 39 min
Bit rate mode : Constant
Bit rate : 1 510 kb/s
Channel(s) : 6 channels
Channel layout : C L R Ls Rs LFE
Sampling rate : 48.0 kHz
Frame rate : 93.750 FPS (512 SPF)
Bit depth : 24 bits
Compression mode : Lossy
Stream size : 1.05 GiB (5%)
Title : AVO, Горчаков
Language : Russian
Default : No
Forced : No

Audio #3
ID : 4
Format : AC-3
Format/Info : Audio Coding 3
Commercial name : Dolby Digital
Codec ID : A_AC3
Duration : 1 h 39 min
Bit rate mode : Constant
Bit rate : 640 kb/s
Channel(s) : 6 channels
Channel layout : L R C LFE Ls Rs
Sampling rate : 48.0 kHz
Frame rate : 31.250 FPS (1536 SPF)
Bit depth : 16 bits
Compression mode : Lossy
Stream size : 456 MiB (2%)
Title : DUB- Blu-ray CEE
Language : Ukrainian
Service kind : Complete Main
Default : No
Forced : No

Audio #4
ID : 5
Format : DTS
Format/Info : Digital Theater Systems
Codec ID : A_DTS
Duration : 1 h 39 min
Bit rate mode : Constant
Bit rate : 1 510 kb/s
Channel(s) : 6 channels
Channel layout : C L R Ls Rs LFE
Sampling rate : 48.0 kHz
Frame rate : 93.750 FPS (512 SPF)
Bit depth : 24 bits
Compression mode : Lossy
Stream size : 1.05 GiB (5%)
Title : Original
Language : English
Default : No
Forced : No

Text #1
ID : 6
Format : UTF-8
Codec ID : S_TEXT/UTF8
Codec ID/Info : UTF-8 Plain Text
Duration : 1 h 31 min
Bit rate : 44 b/s
Count of elements : 623
Stream size : 29.9 KiB (0%)
Title : Sub-Blu-ray CEE
Language : Russian
Default : Yes
Forced : No

Text #2
ID : 7
Format : UTF-8
Codec ID : S_TEXT/UTF8
Codec ID/Info : UTF-8 Plain Text
Duration : 1 h 32 min
Bit rate : 43 b/s
Count of elements : 664
Stream size : 29.6 KiB (0%)
Title : Sub-voronine
Language : Russian
Default : No
Forced : No

Text #3
ID : 8
Format : UTF-8
Codec ID : S_TEXT/UTF8
Codec ID/Info : UTF-8 Plain Text
Duration : 1 h 32 min
Bit rate : 27 b/s
Count of elements : 656
Stream size : 18.9 KiB (0%)
Language : English
Default : No
Forced : No

Menu
00:00:00.000 : en:00:00:00.000
00:08:31.887 : en:00:08:52.699
00:15:15.582 : en:00:15:36.394
00:21:13.981 : en:00:21:34.793
00:30:29.745 : en:00:30:50.557
00:36:25.142 : en:00:36:45.954
00:40:53.618 : en:00:41:14.430
00:46:45.261 : en:00:47:06.073
00:52:15.508 : en:00:52:36.320
00:59:27.773 : en:00:59:48.585
01:05:04.985 : en:01:05:25.797
01:10:49.371 : en:01:11:10.183
01:15:26.522 : en:01:15:47.334
01:19:56.876 : en:01:20:17.688
01:24:17.970 : en:01:24:38.782
01:29:36.580 : en:01:29:57.392



Скачать После нашей эры через торрент https://d.radikal.ru/d27/1907/97/17f300c6fd52.png Скачать, смотреть онлайн После нашей эры бесплантно в хорошем качестве Описание: События разворачиваются через тысячу лет после катастрофы, вынудившей человечество покинуть Землю. Новым домом становится планета ... 9 10 3
Торрент: Зарегистрирован [2019-07-16 02:06] · скачан: 40 раз
Статус: √ проверено
Размер: 20.77 GB
Как cкачать? Как скачать После нашей эры через торрент | UTorrent

28-11-2019 20:33  

Отключить вcю реклaмy на сайте

    Дорогой пользователь! Огромная просьба, поблагодарите релизера, оцените раздачу и оставьте свои комментарий, если Вы скачали После нашей эры через торрент бесплатно!!
    Комментировать посты могут только пользователи прошедшие не сложную регистрацию
    Показать сообщения:    


    После нашей эры через торрент
    Скачать бесплатно После нашей эры
    После нашей эры скачать торрент
    После нашей эры смотреть онлайн
    Cкачать фильм После нашей эры бесплатно
    После нашей эры скачать торрент в хорошем качестве
    После нашей эры смотреть онлайн бесплатно в хорошем качестве
    Вы не можете начинать темы
    Вы не можете отвечать на сообщения
    Вы не можете редактировать свои сообщения
    Вы не можете удалять свои сообщения
    Вы не можете голосовать в опросах
    Вы не можете прикреплять файлы к сообщениям
    Вы можете скачивать файлы