Всегда рабочее зеркало без VPN и Proxy просто перед .vidak.icu напиши любое слово или цифру, Пример http://7rkr.vidak.icu

Лицензия

MVO

1 сезон

1

1 сезон

iTunes

1 сезон

13

1 сезон

Deluxe

pack

Рекомендуем

Repack

30

ВАЖНО

RePack

MK11

RePack

jed

RePack

fifa19

RePack

RDR2

RePack

NEED FOR SPEED™ PAYBACK

Кинопоиск HD

6 сезон

 Острые козырьки 6 сезон

Все сериалы

все сериалы на PB.wtf

RePack

FAR CRY 5
  
Magnet ссылка

Легенды Крыма. Духи пещер (ООО "ЭсКаСи") [2015 г., Документальный, познавательный, пещеры, DVB, Русский] pb.wtf

Легенды Крыма. Духи пещер через торрент pb.wtf

Размер: 566 MB | Добавлен: 6 лет 6 мес. назад | Торрент скачан:53 раза
Смотреть онлайн Легенды Крыма. Духи пещер | Скачать    Ребята, помогите собрать деньги на оплату серверов!!!

02-02-2016 05:51 Легенды Крыма. Духи пещер Скачать торрент  

Легенды Крыма. Духи пещер

Год выпуска: 2015
Страна: Россия
Жанр: Документальный, познавательный, пещеры
Продолжительность: 00:26:21
Перевод: Не требуется Русский

Режиссер: ООО "ЭсКаСи"

Описание: Рассказ о чудовище из крымской пещеры был обнаружен в бумагах инженера Алексея Шумилкина, скончавшегося в феврале 1914 года в Ялте. Лица, близко знавшие инженера отказываются давать оценку изложенным событиям, но единодушно утверждают, что он обладал трезвым, аналитическим умом, совершенно не был склонен к фантазиям и потому никак не мог сочинить всю эту невероятную историю... Что же видел инженер?
"Пещерные города" - удивительные своеобразные историко-археологические памятники средневекового Крыма. Они расположены на горах-останцах, так называемых столовых горах Внутренней гряды Крымских гор. На небольшом пространстве природа сосредоточила все, что поражает воображение - горы, леса, ущелья и головокружительные обрывы. В далекие времена жить в богатых и удобных долинах было опасно, так как Крымский полуостров подвергался бесконечным набегам кочевых племен. В такие периоды людям, которые жили здесь, приходилось покидать свои жилища и уходить в горы, в безопасные места, либо строить оборонительные сооружения поблизости.

Качество: DVB
Формат: TS
Видео кодек: AVC
Аудио кодек: MP2
Видео: AVC, 720x576 (16:9), 25.000 fps, 2 661 Kbps (0.257 bit/pixel)
Аудио: MP2, 48.0 KHz, 2 ch, 192 Kbps, CBR

Код:

Формат                                   : MPEG-TS
Размер файла                             : 566 Мбайт
Продолжительность                        : 26 м.
Режим общего битрейта                    : Переменный
Общий поток                              : 3003 Кбит/сек

Видео
Идентификатор                            : 301 (0x12D)
Идентификатор меню                       : 1 (0x1)
Формат                                   : AVC
Формат/Информация                        : Advanced Video Codec
Профиль формата                          : [email protected]
Параметр CABAC формата                   : Да
Параметр ReFrames формата                : 3 кадра
Параметр GOP формата                     : M=4, N=28
Идентификатор кодека                     : 27
Продолжительность                        : 26 м.
Битрейт                                  : 2661 Кбит/сек
Ширина                                   : 720 пикселей
Высота                                   : 576 пикселей
Соотношение сторон                       : 16:9
Частота кадров                           : 25,000 кадров/сек
Стандарт вещания                         : Component
Цветовое пространство                    : YUV
Субдискретизация насыщенности            : 4:2:0
Битовая глубина                          : 8 бит
Тип развёртки                            : Чересстрочная
Метод сохранения типа развёртки          : Раздельные поля
Порядок развёртки                        : Верхнее поле первое
Бит/(Пиксели*Кадры)                      : 0.257
Размер потока                            : 502 Мбайт (89%)
Цветовой диапазон                        : Limited
Основные цвета                           : BT.601 PAL
Характеристики трансфера                 : BT.470 System B, BT.470 System G
Коэффициенты матрицы                     : BT.601

Аудио
Идентификатор                            : 302 (0x12E)
Идентификатор меню                       : 1 (0x1)
Формат                                   : MPEG Audio
Версия формата                           : Version 1
Профиль формата                          : Layer 2
Идентификатор кодека                     : 3
Продолжительность                        : 26 м.
Вид битрейта                             : Постоянный
Битрейт                                  : 192 Кбит/сек
Каналы                                   : 2 канала
Частота                                  : 48,0 КГц
Метод сжатия                             : С потерями
Размер потока                            : 36,2 Мбайт (6%)

pb.wtf



Скачать Легенды Крыма. Духи пещер через торрент http://i.imgur.com/fj7qFxL.png Скачать, смотреть онлайн Легенды Крыма. Духи пещер бесплантно в хорошем качестве Описание: Рассказ о чудовище из крымской пещеры был обнаружен в бумагах инженера Алексея Шумилкина, скончавшегося в феврале 1914 года в ... 8.2 10 5
Info! Золотая раздача, скачанное не засчитывается.
Торрент: Зарегистрирован [2016-02-02 05:51] · скачан: 53 раз
Статус: √ проверено
Размер: 566 MB
Как cкачать? Как скачать Легенды Крыма. Духи пещер через торрент | UTorrent

28-11-2019 20:33  

Отключить вcю реклaмy на сайте

16-07-2019 17:52 Легенды Крыма. Духи пещер Скачать торрент  

Раздайте плизз!pb.wtf



    Дорогой пользователь! Огромная просьба, поблагодарите релизера, оцените раздачу и оставьте свои комментарий, если Вы скачали Легенды Крыма. Духи пещер через торрент бесплатно!
    Комментировать посты могут только пользователи прошедшие не сложную регистрацию
    Показать сообщения:    

    Легенды Крыма. Духи пещер через торрент
    Скачать бесплатно Легенды Крыма. Духи пещер
    Легенды Крыма. Духи пещер скачать торрент
    Легенды Крыма. Духи пещер смотреть онлайн
    Cкачать фильм Легенды Крыма. Духи пещер бесплатно
    Легенды Крыма. Духи пещер скачать торрент в хорошем качестве
    Легенды Крыма. Духи пещер смотреть онлайн бесплатно в хорошем качестве


    Вы не можете начинать темы
    Вы не можете отвечать на сообщения
    Вы не можете редактировать свои сообщения
    Вы не можете удалять свои сообщения
    Вы не можете голосовать в опросах
    Вы не можете прикреплять файлы к сообщениям
    Вы можете скачивать файлы