Всегда рабочее зеркало без VPN и Proxy просто перед .vidak.icu напиши любое слово или цифру, Пример http://lf7t.vidak.icu

MVO

Лицензия

1 сезон

1

1 сезон

iTunes

1 сезон

13

1 сезон

Deluxe

pack

Рекомендуем

Repack

30

ВАЖНО

RePack

MK11

RePack

jed

RePack

fifa19

RePack

RDR2

RePack

NEED FOR SPEED™ PAYBACK

Кинопоиск HD

6 сезон

 Острые козырьки 6 сезон

Все сериалы

все сериалы на PB.wtf

RePack

FAR CRY 5
  
Magnet ссылка

Прибытие / Arrival (Дени Вильнёв) [2016, фантастика, триллер, драма, UHD BDRip 2160p] [SDR] DUB (rus, ukr) + 2xAVO pb.wtf

Прибытие через торрент pb.wtf

Размер: 19.43 GB | Добавлен: 2 года 11 мес. назад | Торрент скачан:20 раз
Смотреть онлайн Прибытие | Скачать    Ребята, помогите собрать деньги на оплату серверов!!!

17-07-2019 11:48 Прибытие Скачать торрент  

Прибытие / Arrival««Why are they here?»»

Год выпуска: 2016
Страна: США, Канада, Индия
Жанр: фантастика, триллер, драма, детектив
Продолжительность: 01:56:32
Перевод: Дублированный, авторский
Субтитры: Русские (форсированные), (MartinaG), (VoroninE), Украинские (форсированные), Английские (форсированные)
Режиссер: Дени Вильнёв
В ролях:

Эми Адамс (Louise Banks), Джереми Реннер (Ian Donnelly), Форест Уитакер (Colonel Weber), Майкл Стулбарг (Agent Halpern), Марк О’Брайэн (Captain Marks), Ма Ци (General Shang), Эбигейл Пнёвски (8-Year-Old-Hannah), Джулия Скарлет Дэн (12-Year-Old-Hannah), Джейдин Мэлоун (6-Year-Old-Hannah), Фрэнк Скорпион (Dr. Kettler), Lucas Chartier-Dessert (Private Lasky), Кристиан Джада (Private Combs)
Описание:
Неожиданное появление неопознанных летающих объектов в разных точках планеты повергает мир в трепет. Намерения пришельцев не ясны - вооружённые силы всего мира приведены в полную боевую готовность, а лучшие умы человечества пытаются понять, как разговаривать с непрошеными гостями. Правительство обращается за помощью к лингвисту Луизе Бэнкс и физику Яну Доннели, чтобы предотвратить глобальную катастрофу и найти общий язык с пришельцами. Отныне судьба человечества находится в их руках.
Рейтинг:

MPAA: PG-13 - Детям до 13 лет просмотр не желателен
Качество: UHD BDRip 2160p | SDR
Формат: MKV
Видео: MPEG-4 AVC, 16800 Кбит/с, 3840x1608, 23.976 кадр/с
Аудио 1: Русский, AC3, 6ch (L, C, R, Ls, Rs +LFE), 640 кбит/с |Лицензия, Blu-ray EUR|
Аудио 2: Русский DTS, 6ch (L, C, R, Ls, Rs +LFE), 1536 кбит/с |Алексей Матвеев|
Аудио 3: Русский, DTS, 6ch (L, C, R, Ls, Rs +LFE), 1536 кбит/с |Дмитрий Есарев|
Аудио 4: Украинский (Дублированный), AC3, 2ch (L,R), 192 кбит/с |Лицензия, itunes|
Аудио 5: Английский (Оригинал), AC3, 6ch (L, C, R, Ls, Rs +LFE), 640 кбит/с
Аудио 6: Английский (Оригинал), DTS-HD MA, 8ch (L, C, R, Ls, Rs +LFE), 2525 кбит/с
Навигация по главам: есть

Общее
Уникальный идентификатор : 194026664573388009985963505736660709560 (0x91F82D2409BBED9D946DA5C6041A70B8)
Полное имя : D:\Новая папкаVid\Новая_Мои раздачи\Arrival.2016.2160p.BluRay.SDR.8bit.UHD.BDRip.x264.Master5.mkv
Формат : Matroska
Версия формата : Version 4 / Version 2
Размер файла : 19,4 Гбайт
Продолжительность : 1 ч. 56 м.
Общий поток : 23,9 Мбит/сек
Название фильма : Arrival.2016.2160p.BluRay.SDR.8bit.UHD.BDRip.x264.Master5
Дата кодирования : UTC 2017-10-16 17:46:06
Программа кодирования : mkvmerge v8.1.0 ('Psychedelic Postcard') 32bit
Библиотека кодирования : libebml v1.3.1 + libmatroska v1.4.2
Обложка : Yes
Attachments : cover.jpg / Cover.jpg / cover

Видео
Идентификатор : 1
Формат : AVC
Формат/Информация : Advanced Video Codec
Профиль формата : [email protected]
Параметр CABAC формата : Да
Параметр ReFrames формата : 5 кадров
Идентификатор кодека : V_MPEG4/ISO/AVC
Продолжительность : 1 ч. 56 м.
Битрейт : 16,8 Мбит/сек
Ширина : 3840 пикселей
Высота : 1608 пикселей
Соотношение сторон : 2,40:1
Режим частоты кадров : Постоянный
Частота кадров : 23,976 (24000/1001) кадра/сек
Цветовое пространство : YUV
Субдискретизация насыщенности : 4:2:0
Битовая глубина : 8 бит
Тип развёртки : Прогрессивная
Бит/(Пиксели*Кадры) : 0.114
Размер потока : 13,7 Гбайт (71%)
Заголовок : Arrival.2016.2160p.BluRay.SDR.8bit.UHD.BDRip.x264.Master5
Библиотека кодирования : x264 core 148 r2748 97eaef2
Настройки программы : cabac=1 / ref=5 / deblock=1:-1:-1 / analyse=0x3:0x113 / me=umh / subme=10 / psy=1 / psy_rd=1.00:0.15 / mixed_ref=1 / me_range=48 / chroma_me=1 / trellis=2 / 8x8dct=1 / cqm=0 / deadzone=21,11 / fast_pskip=1 / chroma_qp_offset=-3 / threads=50 / lookahead_threads=4 / sliced_threads=0 / nr=0 / decimate=0 / interlaced=0 / bluray_compat=0 / constrained_intra=0 / bframes=3 / b_pyramid=2 / b_adapt=2 / b_bias=0 / direct=3 / weightb=1 / open_gop=0 / weightp=2 / keyint=250 / keyint_min=23 / scenecut=40 / intra_refresh=0 / rc_lookahead=50 / rc=crf / mbtree=1 / crf=18.0 / qcomp=0.60 / qpmin=0 / qpmax=69 / qpstep=4 / ip_ratio=1.40 / aq=1:1.00
Язык : English
Default : Да
Forced : Нет

Аудио #1
Идентификатор : 2
Формат : DTS
Формат/Информация : Digital Theater Systems
Профиль формата : MA / Core
Режим : 16
Параметр Endianness формата : Big
Идентификатор кодека : A_DTS
Продолжительность : 1 ч. 56 м.
Вид битрейта : Переменный / Постоянный
Битрейт : 2525 Кбит/сек / 1509 Кбит/сек
Каналы : 8 каналов / 6 каналов
Расположение каналов : Front: L C R, Side: L R, Back: L R, LFE / Front: L C R, Side: L R, LFE
Частота : 48,0 КГц
Частота кадров : 93,750 кадра/сек (512 spf)
Битовая глубина : 16 бит
Метод сжатия : Без потерь / Lossy
Размер потока : 2,06 Гбайт (11%)
Язык : English
Default : Нет
Forced : Нет

Аудио #2
Идентификатор : 3
Формат : AC-3
Формат/Информация : Audio Coding 3
Расширение режима : CM (complete main)
Параметр Endianness формата : Big
Идентификатор кодека : A_AC3
Продолжительность : 1 ч. 56 м.
Вид битрейта : Постоянный
Битрейт : 640 Кбит/сек
Каналы : 6 каналов
Расположение каналов : Front: L C R, Side: L R, LFE
Частота : 48,0 КГц
Частота кадров : 31,250 кадров/сек (1536 spf)
Метод сжатия : С потерями
Размер потока : 533 Мбайт (3%)
Язык : English
Default : Нет
Forced : Нет

Аудио #3
Идентификатор : 4
Формат : AC-3
Формат/Информация : Audio Coding 3
Расширение режима : CM (complete main)
Параметр Endianness формата : Big
Идентификатор кодека : A_AC3
Продолжительность : 1 ч. 56 м.
Вид битрейта : Постоянный
Битрейт : 640 Кбит/сек
Каналы : 6 каналов
Расположение каналов : Front: L C R, Side: L R, LFE
Частота : 48,0 КГц
Частота кадров : 31,250 кадров/сек (1536 spf)
Метод сжатия : С потерями
Размер потока : 533 Мбайт (3%)
Заголовок : Лицензия, Blu-ray EUR
Язык : Russian
Default : Да
Forced : Да

Аудио #4
Идентификатор : 5
Формат : DTS
Формат/Информация : Digital Theater Systems
Режим : 16
Параметр Endianness формата : Big
Идентификатор кодека : A_DTS
Продолжительность : 1 ч. 56 м.
Вид битрейта : Постоянный
Битрейт : 1509 Кбит/сек
Каналы : 6 каналов
Расположение каналов : Front: L C R, Side: L R, LFE
Частота : 48,0 КГц
Частота кадров : 93,750 кадра/сек (512 spf)
Битовая глубина : 24 бит
Метод сжатия : С потерями
Задержка видео : 11 мс.
Размер потока : 1,23 Гбайт (6%)
Заголовок : Алексей Матвеев
Язык : Russian
Default : Нет
Forced : Нет

Аудио #5
Идентификатор : 6
Формат : DTS
Формат/Информация : Digital Theater Systems
Режим : 16
Параметр Endianness формата : Big
Идентификатор кодека : A_DTS
Продолжительность : 1 ч. 56 м.
Вид битрейта : Постоянный
Битрейт : 1509 Кбит/сек
Каналы : 6 каналов
Расположение каналов : Front: L C R, Side: L R, LFE
Частота : 48,0 КГц
Частота кадров : 93,750 кадра/сек (512 spf)
Битовая глубина : 24 бит
Метод сжатия : С потерями
Задержка видео : 11 мс.
Размер потока : 1,23 Гбайт (6%)
Заголовок : Дмитрий Есарев
Язык : Russian
Default : Нет
Forced : Нет

Аудио #6
Идентификатор : 7
Формат : AC-3
Формат/Информация : Audio Coding 3
Расширение режима : CM (complete main)
Параметр Endianness формата : Big
Идентификатор кодека : A_AC3
Продолжительность : 1 ч. 56 м.
Вид битрейта : Постоянный
Битрейт : 192 Кбит/сек
Каналы : 2 канала
Расположение каналов : Front: L R
Частота : 44,1 КГц
Частота кадров : 28,711 кадров/сек (1536 spf)
Метод сжатия : С потерями
Размер потока : 160 Мбайт (1%)
Заголовок : Лицензия, itunes Russia
Язык : Ukrainian
Default : Нет
Forced : Нет

Текст #1
Идентификатор : 8
Формат : UTF-8
Идентификатор кодека : S_TEXT/UTF8
Идентификатор кодека/Информация : UTF-8 Plain Text
Продолжительность : 1 ч. 29 м.
Битрейт : 1 бит/сек
Count of elements : 26
Размер потока : 1,17 Кбайт (0%)
Заголовок : Forced
Язык : Russian
Default : Нет
Forced : Да

Текст #2
Идентификатор : 9
Формат : UTF-8
Идентификатор кодека : S_TEXT/UTF8
Идентификатор кодека/Информация : UTF-8 Plain Text
Продолжительность : 1 ч. 49 м.
Битрейт : 92 бит/сек
Count of elements : 1266
Размер потока : 73,8 Кбайт (0%)
Язык : Russian
Default : Нет
Forced : Нет

Текст #3
Идентификатор : 10
Формат : UTF-8
Идентификатор кодека : S_TEXT/UTF8
Идентификатор кодека/Информация : UTF-8 Plain Text
Продолжительность : 1 ч. 50 м.
Битрейт : 71 бит/сек
Count of elements : 760
Размер потока : 57,8 Кбайт (0%)
Заголовок : Full, MartinaG
Язык : Russian
Default : Нет
Forced : Нет

Текст #4
Идентификатор : 11
Формат : UTF-8
Идентификатор кодека : S_TEXT/UTF8
Идентификатор кодека/Информация : UTF-8 Plain Text
Продолжительность : 1 ч. 49 м.
Битрейт : 85 бит/сек
Count of elements : 1199
Размер потока : 68,8 Кбайт (0%)
Заголовок : Full, VoroninE
Язык : Russian
Default : Нет
Forced : Нет

Текст #5
Идентификатор : 12
Формат : UTF-8
Идентификатор кодека : S_TEXT/UTF8
Идентификатор кодека/Информация : UTF-8 Plain Text
Продолжительность : 1 ч. 25 м.
Битрейт : 2 бит/сек
Count of elements : 38
Размер потока : 1,76 Кбайт (0%)
Заголовок : Forced
Язык : Ukrainian
Default : Нет
Forced : Нет

Текст #6
Идентификатор : 13
Формат : UTF-8
Идентификатор кодека : S_TEXT/UTF8
Идентификатор кодека/Информация : UTF-8 Plain Text
Продолжительность : 1 ч. 48 м.
Битрейт : 88 бит/сек
Count of elements : 1265
Размер потока : 70,5 Кбайт (0%)
Заголовок : Full
Язык : Ukrainian
Default : Нет
Forced : Нет

Текст #7
Идентификатор : 14
Формат : UTF-8
Идентификатор кодека : S_TEXT/UTF8
Идентификатор кодека/Информация : UTF-8 Plain Text
Продолжительность : 2 м. 33 с.
Битрейт : 7 бит/сек
Count of elements : 8
Размер потока : 151 байт (0%)
Заголовок : Forced
Язык : English
Default : Нет
Forced : Нет

Текст #8
Идентификатор : 15
Формат : UTF-8
Идентификатор кодека : S_TEXT/UTF8
Идентификатор кодека/Информация : UTF-8 Plain Text
Продолжительность : 1 ч. 48 м.
Битрейт : 55 бит/сек
Count of elements : 1231
Размер потока : 44,5 Кбайт (0%)
Заголовок : Full
Язык : English
Default : Нет
Forced : Нет

Меню
00:00:00.000 : en:Chapter 1
00:09:54.385 : en:Chapter 2
00:17:38.015 : en:Chapter 3
00:24:31.595 : en:Chapter 4
00:33:58.619 : en:Chapter 5
00:43:51.211 : en:Chapter 6
00:52:30.564 : en:Chapter 7
00:57:39.038 : en:Chapter 8
01:03:10.912 : en:Chapter 9
01:09:33.669 : en:Chapter 10
01:17:23.680 : en:Chapter 11
01:25:26.287 : en:Chapter 12
01:35:41.527 : en:Chapter 13
01:41:00.429 : en:Chapter 14
01:43:42.966 : en:Chapter 15
01:45:38.206 : en:Chapter 16
pb.wtf



Скачать Прибытие через торрент https://c.radikal.ru/c04/1907/d6/036878733dd7.png Скачать, смотреть онлайн Прибытие бесплантно в хорошем качестве Описание: Неожиданное появление неопознанных летающих объектов в разных точках планеты повергает мир в трепет. Намерения пришельцев не ясны ... 10 10 2
Торрент: Зарегистрирован [2019-07-17 11:48] · скачан: 20 раз
Статус: √ проверено
Размер: 19.43 GB
Как cкачать? Как скачать Прибытие через торрент | UTorrent

% Раздел Тема Автор DL S | L
Ultra HD (UHD: 2K, 4K, 8K) — видео сверхвысокой чёткости [ 68.63 GB ] Прибытие / Arrival [2016 UHD BDRemux 2160p] DUB + MVO + 7xAVO sheker187 Скачать
1 | 0
Ultra HD (UHD: 2K, 4K, 8K) — видео сверхвысокой чёткости [ 51.04 GB ] Прибытие / Arrival [2016 UHD BDRemux 2160p] DUB+2xAVO [] bober100 Скачать
1 | 0
Фильмы [HD 720p, 1080p] (Хороший звук DUB, MVO) [ 8.03 GB ] Прибытие / Arrival [2016 BDRip 720p от _denis_100 | NNNB] DUB + 6xAVO + Original + Sub _denis_100 Скачать
1 | 0

28-11-2019 20:33  

Отключить всю рекламу на сайте

    Дорогой пользователь! Огромная просьба, поблагодарите релизера, оцените раздачу и оставьте свои комментарий, если Вы скачали Прибытие через торрент бесплатно!
    Комментировать посты могут только пользователи прошедшие не сложную регистрацию
    Показать сообщения:    

    Прибытие через торрент
    Скачать бесплатно Прибытие
    Прибытие скачать торрент
    Прибытие смотреть онлайн
    Cкачать фильм Прибытие бесплатно
    Прибытие скачать торрент в хорошем качестве
    Прибытие смотреть онлайн бесплатно в хорошем качестве


    Вы не можете начинать темы
    Вы не можете отвечать на сообщения
    Вы не можете редактировать свои сообщения
    Вы не можете удалять свои сообщения
    Вы не можете голосовать в опросах
    Вы не можете прикреплять файлы к сообщениям
    Вы можете скачивать файлы