Всегда рабочее зеркало без VPN и Proxy просто перед .vidak.icu напиши любое слово или цифру, Пример http://t9pp.vidak.icu

MVO

MVO

1 сезон

1

1 сезон

iTunes

1 сезон

13

1 сезон

Deluxe

pack

Рекомендуем

Repack

30

ВАЖНО

RePack

MK11

RePack

jed

RePack

fifa19

RePack

RDR2

RePack

NEED FOR SPEED™ PAYBACK

Кинопоиск HD

6 сезон

 Острые козырьки 6 сезон

Все сериалы

все сериалы на PB.wtf

RePack

FAR CRY 5
  
Magnet ссылка

Гранд Тур / The Grand Tour / Сезон: 3 / Серии: 1-14 из 14 [2019, Авто-шоу, UHD WEBRip 2160p] [HDR10] MVO [AlexFilm] pb.wtf

Гранд Тур через торрент pb.wtf

Размер: 102.65 GB | Добавлен: 3 года назад | Торрент скачан:31 раз
Смотреть онлайн Гранд Тур | Скачать    Ребята, помогите собрать деньги на оплату серверов!!!

20-07-2019 03:50 Гранд Тур Скачать торрент  

Гранд Тур / The Grand Tour
Год выхода: 2019
Страна: Великобритания
Жанр: Автопередача
Продолжительность: ~01:10:00 серия
Перевод: Профессиональное многоголосое закадровое | AlexFilm
Субтитры: Русские(полные Amazon ) и Английские

В ролях: Джереми Кларксон (Jeremy Clarkson), Ричард Хаммонд (Richard Hammond), Джеймс Мэй (James May).

Описание: "Гранд Тур" — это новое автомобильное телешоу, созданное бывшими ведущими Top Gear — Джереми Кларксоном, Ричардом Хаммондом и Джеймсом Мэйем. Зрителей ждут автомобильные обзоры, приключения по всему миру, встречи со знаменитостями и юмор, который является непременным атрибутом каждого выпуска.

Сэмпл: http://sendfile.su/1469165
rating


Качество видео: UHD WEBRip 2160p
Формат: MKV

Видео: HEVC HDR, Main [email protected]@Main, HDR10, 3840x2160 (16:9), ~12500 kbps avg, 25,000 fps
Аудио#1 Russian: 48 kHz, AC3, 3/2 (L,C,R,l,r) + LFE ch, ~384 kbps avg |Многоголосый закадровый, AlexFilm|
Аудио#2 English: 48 kHz, EAC3, 3/2 (L,C,R,l,r) + LFE ch, ~640 kbps avg
Аудио#3 English: 48 kHz, EAC3, 2/0 (L,R) ch, ~224 kbps avg
Релиз:

Перевод: Константин Кривоногов
Монтаж и сведение звука: Константин Федосеев
Роли озвучивали:

Екатерина Муравицкая
Андрей Стакионис
Константин Погодаев
Дмитрий Лунёв
Михаил Суслов
Кирилл Патрино

скриншот  скриншот  скриншот  скриншот  

Общее
Уникальный идентификатор : 119739800380980143842401310350406093618 (0x5A150BF51CC46974BF31CC79CEEC8B32)
Полное имя : The.Grand.Tour.S03E01.2160p.AMZN.WEBRip.DDP5.1.x265.mkv
Формат : Matroska
Версия формата : Version 4 / Version 2
Размер файла : 6,52 Гбайт
Продолжительность : 1 ч. 8 м.
Общий поток : 13,5 Мбит/сек
Дата кодирования : UTC 2019-07-17 18:27:25
Программа кодирования : mkvmerge v35.0.0 ('All The Love In The World') 64-bit
Библиотека кодирования : libebml v1.3.9 + libmatroska v1.5.2

Видео
Идентификатор : 1
Формат : HEVC
Формат/Информация : High Efficiency Video Coding
Коммерческое название : HDR10
Профиль формата : Main [email protected]@Main
Идентификатор кодека : V_MPEGH/ISO/HEVC
Продолжительность : 1 ч. 8 м.
Битрейт : 12,3 Мбит/сек
Ширина : 3840 пикселей
Высота : 2160 пикселей
Соотношение сторон : 16:9
Режим частоты кадров : Постоянный
Частота кадров : 25,000 кадров/сек
Цветовое пространство : YUV
Субдискретизация насыщенности : 4:2:0 (Type 2)
Битовая глубина : 10 бит
Бит/(Пиксели*Кадры) : 0.059
Размер потока : 5,91 Гбайт (91%)
Библиотека кодирования : x265 3.1_RC1:[Linux][GCC 7.3.0][64 bit] 10bit
Настройки программы : cpuid=1049583 / frame-threads=6 / wpp / no-pmode / no-pme / no-psnr / no-ssim / log-level=2 / input-csp=1 / input-res=3840x2160 / interlace=0 / total-frames=0 / level-idc=50 / high-tier=0 / uhd-bd=0 / ref=4 / no-allow-non-conformance / repeat-headers / annexb / aud / hrd / info / hash=0 / no-temporal-layers / no-open-gop / min-keyint=25 / keyint=250 / gop-lookahead=0 / bframes=6 / b-adapt=2 / b-pyramid / bframe-bias=0 / rc-lookahead=60 / lookahead-slices=4 / scenecut=40 / radl=0 / no-splice / no-intra-refresh / ctu=32 / min-cu-size=8 / no-rect / no-amp / max-tu-size=32 / tu-inter-depth=4 / tu-intra-depth=4 / limit-tu=0 / rdoq-level=2 / dynamic-rd=0.00 / no-ssim-rd / signhide / no-tskip / nr-intra=0 / nr-inter=0 / no-constrained-intra / no-strong-intra-smoothing / max-merge=3 / limit-refs=1 / limit-modes / me=3 / subme=3 / merange=32 / temporal-mvp / weightp / no-weightb / no-analyze-src-pics / deblock=-3:-3 / no-sao / no-sao-non-deblock / rd=3 / early-skip / no-rskip / no-fast-intra / no-tskip-fast / no-cu-lossless / b-intra / no-splitrd-skip / rdpenalty=0 / psy-rd=1.05 / psy-rdoq=1.00 / no-rd-refine / no-lossless / cbqpoffs=0 / crqpoffs=0 / rc=crf / crf=20.0 / qcomp=0.65 / qpstep=4 / stats-write=0 / stats-read=0 / vbv-maxrate=25000 / vbv-bufsize=25000 / vbv-init=0.9 / crf-max=0.0 / crf-min=0.0 / ipratio=1.30 / pbratio=1.20 / aq-mode=1 / aq-strength=0.75 / no-cutree / zone-count=0 / no-strict-cbr / qg-size=8 / no-rc-grain / qpmax=69 / qpmin=0 / no-const-vbv / sar=0 / overscan=0 / videoformat=5 / range=0 / colorprim=9 / transfer=16 / colormatrix=9 / chromaloc=1 / chromaloc-top=2 / chromaloc-bottom=2 / display-window=0 / master-display=G(13250,34500)B(7500,3000)R(34000,16000)WP(15635,16450)L(10000000,1)cll=999,437 / min-luma=0 / max-luma=1023 / log2-max-poc-lsb=8 / vui-timing-info / vui-hrd-info / slices=1 / no-opt-qp-pps / no-opt-ref-list-length-pps / no-multi-pass-opt-rps / scenecut-bias=0.05 / no-opt-cu-delta-qp / no-aq-motion / hdr / hdr-opt / no-dhdr10-opt / no-idr-recovery-sei / analysis-reuse-level=5 / scale-factor=0 / refine-intra=0 / refine-inter=0 / refine-mv=0 / refine-ctu-distortion=0 / no-limit-sao / ctu-info=0 / no-lowpass-dct / refine-analysis-type=0 / copy-pic=1 / max-ausize-factor=1.0 / no-dynamic-refine / no-single-sei / no-hevc-aq / no-svt / no-field / qp-adaptation-range=1.00
Default : Да
Forced : Нет
Цветовой диапазон : Limited
Основные цвета : BT.2020
Характеристики трансфера : PQ
Коэффициенты матрицы : BT.2020 non-constant
MasteringDisplay_ColorPrimaries : Display P3
MasteringDisplay_Luminance : min: 0.0001 cd/m2, max: 1000 cd/m2
MaxCLL : 999 cd/m2
MaxFALL : 437 cd/m2

Аудио #1
Идентификатор : 2
Формат : AC-3
Формат/Информация : Audio Coding 3
Идентификатор кодека : A_AC3
Продолжительность : 1 ч. 8 м.
Вид битрейта : Постоянный
Битрейт : 384 Кбит/сек
Каналы : 6 каналов
Расположение каналов : Front: L C R, Side: L R, LFE
Частота : 48,0 КГц
Частота кадров : 31,250 кадров/сек (1536 SPF)
Битовая глубина : 16 бит
Метод сжатия : С потерями
Размер потока : 189 Мбайт (3%)
Заголовок : 5.1 AlexFilm
Язык : Russian
ServiceKind : Complete Main
Default : Да
Forced : Нет

Аудио #2
Идентификатор : 3
Формат : E-AC-3
Формат/Информация : Enhanced Audio Coding 3
Идентификатор кодека : A_EAC3
Продолжительность : 1 ч. 8 м.
Вид битрейта : Постоянный
Битрейт : 640 Кбит/сек
Каналы : 6 каналов
Расположение каналов : Front: L C R, Side: L R, LFE
Частота : 48,0 КГц
Частота кадров : 187,500 кадров/сек (256 SPF)
Метод сжатия : С потерями
Размер потока : 315 Мбайт (5%)
Заголовок : 5.1 English
Язык : English
ServiceKind : Complete Main
Default : Нет
Forced : Нет

Аудио #3
Идентификатор : 4
Формат : E-AC-3
Формат/Информация : Enhanced Audio Coding 3
Идентификатор кодека : A_EAC3
Продолжительность : 1 ч. 8 м.
Вид битрейта : Постоянный
Битрейт : 224 Кбит/сек
Каналы : 2 канала
Расположение каналов : Front: L R
Частота : 48,0 КГц
Частота кадров : 187,500 кадров/сек (256 SPF)
Метод сжатия : С потерями
Размер потока : 110 Мбайт (2%)
Заголовок : 2.0 English
Язык : English
ServiceKind : Complete Main
Default : Нет
Forced : Нет

Текст #1
Идентификатор : 5
Формат : UTF-8
Идентификатор кодека : S_TEXT/UTF8
Идентификатор кодека/Информация : UTF-8 Plain Text
Продолжительность : 1 ч. 8 м.
Битрейт : 87 бит/сек
ElementCount : 1192
Размер потока : 43,8 Кбайт (0%)
Заголовок : English [CC]
Язык : English
Default : Нет
Forced : Нет

Текст #2
Идентификатор : 6
Формат : UTF-8
Идентификатор кодека : S_TEXT/UTF8
Идентификатор кодека/Информация : UTF-8 Plain Text
Продолжительность : 1 ч. 8 м.
Битрейт : 139 бит/сек
ElementCount : 1156
Размер потока : 69,5 Кбайт (0%)
Заголовок : Русский
Язык : Russian
Default : Нет
Forced : Нет
pb.wtf



Скачать Гранд Тур через торрент https://i110.fastpic.ru/big/2019/0208/3d/fc87b69a6e2b7667a2d86c12a820383d.jpg Скачать, смотреть онлайн Гранд Тур бесплантно в хорошем качестве Описание: "Гранд Тур" — это новое автомобильное телешоу, созданное бывшими ведущими Top Gear — Джереми Кларксоном, Ричардом Хаммондом и ... 10 10 3
Торрент: Зарегистрирован [2019-07-20 03:50] · скачан: 31 раз
Статус: √ проверено
Размер: 102.65 GB
Как cкачать? Как скачать Гранд Тур через торрент | UTorrent

% Раздел Тема Автор DL S | L
Автоспорт [ 20.77 GB ] Гранд Тур / The Grand Tour / Сезон 3 / Серии 1-14 из 14 [2019. Авто-шоу WEB-DLRip] [MVO] killermax2013 Скачать
1 | 0
Автоспорт [ 66.91 GB ] Гранд Тур / The Grand Tour / Сезон: 3 / Серии: 1-14 из 14 [2019 Авто-шоу WEB-DL 1080p] MVO [AlexFilm] bober100 Скачать
1 | 0
Автоспорт [ 40.44 GB ] Гранд Тур / The Grand Tour / Сезон: 3 / Серии: 1-14 из 14 [2019 Авто-шоу WEB-DL 720p] MVO [AlexFilm] bober100 Скачать
2 | 0
Автоспорт [ 63.13 GB ] Гранд Тур / The Grand Tour / Сезон 3 / Серии 1-14 из 14 [2019. Авто-шоу WEBRip 1080p] [MVO] killermax2013 Скачать
1 | 0
Автоспорт [ 10.75 GB ] Гранд Тур / The Grand Tour / Сезон: 3 / Серии: 1-14 из 14 [2019. Авто-шоу WEBRip] [MVO] killermax2013 Скачать
1 | 0
Автоспорт [ 35 GB ] Гранд Тур / The Grand Tour / Сезон: 3 / Серии: 1-14 из 14 [2019. Авто-шоу WEBRip 720p] [MVO] killermax2013 Скачать
1 | 0
Автоспорт [ 59.22 GB ] Гранд Тур / The Grand Tour / Сезон: 3 / Серии: 1-14 из 14 [2019. Авто-шоу WEBRip 1080p] [MVO] killermax2013 Скачать
1 | 0

28-11-2019 20:33  

Отключить вcю реклaмy на сайте

    Дорогой пользователь! Огромная просьба, поблагодарите релизера, оцените раздачу и оставьте свои комментарий, если Вы скачали Гранд Тур через торрент бесплатно!
    Комментировать посты могут только пользователи прошедшие не сложную регистрацию
    Показать сообщения:    

    Гранд Тур через торрент
    Скачать бесплатно Гранд Тур
    Гранд Тур скачать торрент
    Гранд Тур смотреть онлайн
    Cкачать фильм Гранд Тур бесплатно
    Гранд Тур скачать торрент в хорошем качестве
    Гранд Тур смотреть онлайн бесплатно в хорошем качестве


    Вы не можете начинать темы
    Вы не можете отвечать на сообщения
    Вы не можете редактировать свои сообщения
    Вы не можете удалять свои сообщения
    Вы не можете голосовать в опросах
    Вы не можете прикреплять файлы к сообщениям
    Вы можете скачивать файлы