Архив 81

1 сезон

Добыча

Дубляж

Тед Лассо

3 сезон

Тор

1 сезон

13 клиническая

3 сезон

Жестокая ночь

Дубляж

Одни из нас

1s 9e

Premium

Premium

Deluxe

Deluxe

pack

Рекомендуем

30

Repack

ВАЖНО

ВАЖНО

Ghostwire

Пиратка

jed

RePack

nioh2

RePack

RDR2

RePack

NEED FOR SPEED™ PAYBACK

RePack

скачать торрент

Кинопоиск HD

Острые козырьки 6 сезон

6 сезон

FAR CRY 6

RePack

скачать торрент

Лицензия

скачать торрент

MVO

1

1 сезон

скачать торрент

1 сезон

скачать торрент

Лицензия

  

National Geographic. Фри-соло / Free Solo (Элизабет Чай Васархели, Джимми Чин) [2018, Документальный, спорт, UHD BDRemux 2160p] DVO

National Geographic. Фри-соло через торрент pb.wtf

Размер: 40.16 GB | Добавлен: 3 года 8 мес. назад | Торрент скачан:9 раз
| Скачать | Поддержите нас   

23-07-2019 12:10 National Geographic. Фри-соло Скачать торрент  

Фри-соло / Free Solo««Live Beyond Fear»»

Год выпуска: 2018
Страна: США
Жанр: документальный, спорт, экстрим
Продолжительность: 01:40:03
Перевод: Профессиональный двухголосый
Субтитры: Английские
Режиссер: Джимми Чин, Элизабет Чай Васархели
В ролях:

Алекс Хоннольд (играет самого себя), Томми Колдуэлл (играет самого себя), Джимми Чин (играет самого себя), Cheyne Lempe (играет самого себя), Мики Шефер (играет самого себя), Санни Маккэндлесс (играет саму себя), Dierdre Wolownick (играет саму себя), Питер Крофт (играет самого себя), Mark Synnott (играет самого себя), John Bachar (играет самого себя, хроника, в титрах не указан), Derek Hersey (играет самого себя, хроника, в титрах не указан), Sean Leary (играет самого себя, хроника, в титрах не указан)
Описание:
Фильм рассказывает о подвиге Алекса Хоннольда - первого человека, который без какой-либо помощи поднялся на вертикальную 3000-футовую гору, известную как «Эль-Капитан», расположенную в национальном парке Йосемити.
Рейтинг:

MPAA: PG-13 - Детям до 13 лет просмотр не желателен
Качество: UHD BDRemux 2160p
Формат: MKV
Видео: HEVC HDR, 53.5 Mбит/с, 3840x2160, 23.976 Кадр/с
Аудио #1: 48 kHz, AC3, 2ch, ~192.00 kbps avg /RUS/ Профессиональный двухголосый
Аудио #2: 48 kHz, DTS-HD MA, 6ch, ~1818.00 kbps avg /ENG/ Оригинал
Аудио #3: 48 kHz, DTS-HD MA, 6ch, ~1916.00 kbps avg /GER/ Профессиональный двухголосый
Навигация по главам: есть

Complete name : D:\movies\Free.Solo.2018.DOCU.2160p.BluRay.REMUX.HEVC.DTS-HD.MA.5.1-SHD13.mkv
Format : Matroska
Format version : Version 4
File size : 40.2 GiB
Duration : 1 h 40 min
Overall bit rate mode : Variable
Overall bit rate : 57.5 Mb/s
Movie name : Free.Solo.2018.DOCU.2160p.BluRay.REMUX.HEVC.DTS-HD.MA.5.1-SHD13
Encoded date : UTC 2019-07-23 08:32:41
Writing application : mkvmerge v34.0.0 ('Sight and Seen') 64-bit
Writing library : libebml v1.3.7 + libmatroska v1.5.0
Attachments : poster.png

Video
ID : 1
Format : HEVC
Format/Info : High Efficiency Video Coding
Format profile : Main [email protected]@High
HDR format : SMPTE ST 2086, HDR10 compatible
Codec ID : V_MPEGH/ISO/HEVC
Duration : 1 h 40 min
Bit rate : 53.5 Mb/s
Width : 3 840 pixels
Height : 2 160 pixels
Display aspect ratio : 16:9
Frame rate mode : Constant
Frame rate : 23.976 (24000/1001) FPS
Color space : YUV
Chroma subsampling : 4:2:0 (Type 2)
Bit depth : 10 bits
Bits/(Pixel*Frame) : 0.269
Stream size : 37.4 GiB (93%)
Title : Free.Solo.2018.DOCU.2160p.BluRay.REMUX.HEVC.DTS-HD.MA.5.1-SHD13
Language : Russian
Default : No
Forced : No
Color range : Limited
Color primaries : BT.2020
Transfer characteristics : PQ
Matrix coefficients : BT.2020 non-constant
Mastering display color pri : Display P3
Mastering display luminance : min: 0.0050 cd/m2, max: 1000 cd/m2
Maximum Content Light Level : 1000 cd/m2

Audio #1
ID : 2
Format : AC-3
Format/Info : Audio Coding 3
Commercial name : Dolby Digital
Codec ID : A_AC3
Duration : 1 h 40 min
Bit rate mode : Constant
Bit rate : 192 kb/s
Channel(s) : 2 channels
Channel layout : L R
Sampling rate : 48.0 kHz
Frame rate : 31.250 FPS (1536 SPF)
Bit depth : 16 bits
Compression mode : Lossy
Stream size : 137 MiB (0%)
Title : DVO
Language : Russian
Service kind : Complete Main
Default : No
Forced : No

Audio #2
ID : 3
Format : DTS XLL
Format/Info : Digital Theater Systems
Commercial name : DTS-HD Master Audio
Codec ID : A_DTS
Duration : 1 h 40 min
Bit rate mode : Variable
Bit rate : 1 818 kb/s
Channel(s) : 6 channels
Channel layout : C L R Ls Rs LFE
Sampling rate : 48.0 kHz
Frame rate : 93.750 FPS (512 SPF)
Bit depth : 16 bits
Compression mode : Lossless
Stream size : 1.27 GiB (3%)
Language : English
Default : Yes
Forced : No

Audio #3
ID : 4
Format : DTS XLL
Format/Info : Digital Theater Systems
Commercial name : DTS-HD Master Audio
Codec ID : A_DTS
Duration : 1 h 40 min
Bit rate mode : Variable
Bit rate : 1 916 kb/s
Channel(s) : 6 channels
Channel layout : C L R Ls Rs LFE
Sampling rate : 48.0 kHz
Frame rate : 93.750 FPS (512 SPF)
Bit depth : 16 bits
Compression mode : Lossless
Stream size : 1.34 GiB (3%)
Language : German
Default : No
Forced : No

Text #1
ID : 5
Format : UTF-8
Codec ID : S_TEXT/UTF8
Codec ID/Info : UTF-8 Plain Text
Duration : 1 h 35 min
Bit rate : 86 b/s
Count of elements : 1320
Stream size : 60.0 KiB (0%)
Title : Full
Language : English
Default : Yes
Forced : No

Text #2
ID : 6
Format : UTF-8
Codec ID : S_TEXT/UTF8
Codec ID/Info : UTF-8 Plain Text
Duration : 1 h 39 min
Bit rate : 87 b/s
Count of elements : 1365
Stream size : 63.6 KiB (0%)
Title : SDH
Language : English
Default : No
Forced : No

Menu
00:00:00.000 : en:Chapter 01
00:05:35.209 : en:Chapter 02
00:13:03.032 : en:Chapter 03
00:21:03.011 : en:Chapter 04
00:29:37.776 : en:Chapter 05
00:39:38.250 : en:Chapter 06
00:46:35.083 : en:Chapter 07
00:49:50.988 : en:Chapter 08
00:57:45.211 : en:Chapter 09
01:02:47.722 : en:Chapter 10
01:07:45.853 : en:Chapter 11
01:19:16.585 : en:Chapter 12



Скачать National Geographic. Фри-соло через торрент https://b.radikal.ru/b25/1907/cf/999c514026b7.jpg Скачать, смотреть онлайн National Geographic. Фри-соло бесплантно в хорошем качестве Описание: Фильм рассказывает о подвиге Алекса Хоннольда - первого человека, который без какой-либо помощи поднялся на вертикальную ... 5 10 1
Торрент: Зарегистрирован [2019-07-23 12:10] · скачан: 9 раз
Статус: √ проверено
Размер: 40.16 GB
Как cкачать? Как скачать National Geographic. Фри-соло через торрент | UTorrent

28-11-2019 20:33  


Отключить вcю реклaмy на сайте, в т.ч. и в плеере онлайн просмотра!

23-07-2019 15:58 National Geographic. Фри-соло Скачать торрент  

похоже что и в 40 просмотр не желателен,чувак с больной головой



    Дорогой пользователь! Огромная просьба, поблагодарите релизера, оцените раздачу и оставьте свои комментарий, если Вы скачали National Geographic. Фри-соло через торрент бесплатно!!
    Комментировать посты могут только пользователи прошедшие не сложную регистрацию
    Показать сообщения:    


    National Geographic. Фри-соло через торрент
    Скачать бесплатно National Geographic. Фри-соло
    National Geographic. Фри-соло скачать торрент
    National Geographic. Фри-соло смотреть онлайн
    Cкачать фильм National Geographic. Фри-соло бесплатно
    National Geographic. Фри-соло скачать торрент в хорошем качестве
    National Geographic. Фри-соло смотреть онлайн бесплатно в хорошем качестве
    Вы не можете начинать темы
    Вы не можете отвечать на сообщения
    Вы не можете редактировать свои сообщения
    Вы не можете удалять свои сообщения
    Вы не можете голосовать в опросах
    Вы не можете прикреплять файлы к сообщениям
    Вы можете скачивать файлы
    National Geographic. Фри-соло / Free Solo [2018, Документальный, спорт, UHD BDRemux 2160p] DVO смотреть онлайн, скачать торрент picoco.icu