Всегда рабочее зеркало без VPN и Proxy просто перед .vidak.icu напиши любое слово или цифру, Пример http://vu3v.vidak.icu

MVO

MVO

1 сезон

1

1 сезон

iTunes

1 сезон

13

1 сезон

Deluxe

pack

Рекомендуем

Repack

30

ВАЖНО

RePack

MK11

RePack

jed

RePack

fifa19

RePack

RDR2

RePack

NEED FOR SPEED™ PAYBACK

Кинопоиск HD

6 сезон

 Острые козырьки 6 сезон

Все сериалы

все сериалы на PB.wtf

RePack

FAR CRY 5
  
Magnet ссылка

Большой хак / The Great Hack (Карим Амер, Джехен Нужейм) [2019, Документальный, WEB-DLRip-AVC] MVO [Пифагор] - ExKinoRay pb.wtf

Большой хак через торрент pb.wtf

Размер: 2.7 GB | Добавлен: 3 года назад | Торрент скачан:65 раз
Смотреть онлайн Большой хак | Скачать    Ребята, помогите собрать деньги на оплату серверов!!!

27-07-2019 02:04 Большой хак Скачать торрент  

Название: Большой хак
Оригинальное название: The Great Hack
Год выпуска: 2019
Жанр: Документальный, научно-познавательный
Режиссер: Карим Амер, Джехен Нужейм
В ролях: Карол Кадуолладр, Джейми Бартлетт, Стивен Бэннон

Описание: Кэмбридж Аналитика, частная английская компания, которая использует технологии глубинного анализа данных, проводит расследование так называемого - Большого хака - вмешательства крупных информационных корпораций (Гугл, Фейсбук и т.д.) в жизнь человека, их роль в повседневной жизни и, самое главное, ежесекундный шпионаж за каждым из пользователей смартфонов, планшетов и компьютеров.

rating

Страна: США
Продолжительность: 01:54:13
Перевод: Профессиональный многоголосый [Студия "Пифагор"]
Субтитры: Русские (Forced, Full), английские (Forced, Full)

Формат: MKV
Качество: WEB-DLRip-AVC
Видео: MPEG-4 AVC, 1024x576 (16:9), 23.976 fps, 2485 Kbps, 0.176 bit/pixel
Аудио #01: 48 kHz, AC3, 5.1, 448 Kbps | Пифагор | RUS |
Аудио #02: 48 kHz, AC3, 5.1, 448 Kbps | Оригинал | ENG |
General
Unique ID : 187035495161593658118161782438445243609 (0x8CB5B9E0589DE2D28B21A56A3EC4DCD9)
Complete name : F:\The.Great.Hack.2019.NF.WEB-DL.AVC.ExKinoRay.mkv
Format : Matroska
Format version : Version 2
File size : 2.70 GiB
Duration : 1 h 54 min
Overall bit rate : 3 379 kb/s
Movie name : The Great Hack 2019 from ExKinoRay
Encoded date : UTC 2019-07-27 00:17:33
Writing application : mkvmerge v5.6.0 ('Kenya Kane') built on May 27 2012 16:44:04
Writing library : libebml v1.2.3 + libmatroska v1.3.0

Video
ID : 1
Format : AVC
Format/Info : Advanced Video Codec
Format profile : [email protected]
Format settings, CABAC : Yes
Format settings, ReFrames : 11 frames
Codec ID : V_MPEG4/ISO/AVC
Duration : 1 h 54 min
Bit rate : 2 485 kb/s
Width : 1 024 pixels
Height : 576 pixels
Display aspect ratio : 16:9
Frame rate mode : Constant
Frame rate : 23.976 (23976/1000) FPS
Color space : YUV
Chroma subsampling : 4:2:0
Bit depth : 8 bits
Scan type : Progressive
Bits/(Pixel*Frame) : 0.176
Stream size : 1.93 GiB (71%)
Title : Enigma
Writing library : x264 core 152 r2851 ba24899
Encoding settings : cabac=1 / ref=11 / deblock=1:-2:-2 / analyse=0x3:0x113 / me=umh / subme=10 / psy=1 / psy_rd=1.03:0.10 / mixed_ref=1 / me_range=32 / chroma_me=1 / trellis=2 / 8x8dct=1 / cqm=0 / deadzone=21,11 / fast_pskip=0 / chroma_qp_offset=-3 / threads=12 / lookahead_threads=3 / sliced_threads=0 / nr=0 / decimate=0 / interlaced=0 / bluray_compat=0 / constrained_intra=0 / bframes=12 / b_pyramid=2 / b_adapt=2 / b_bias=0 / direct=3 / weightb=1 / open_gop=0 / weightp=2 / keyint=240 / keyint_min=23 / scenecut=40 / intra_refresh=0 / rc=2pass / mbtree=0 / bitrate=2485 / ratetol=1.0 / qcomp=0.60 / qpmin=0 / qpmax=51 / qpstep=4 / cplxblur=20.0 / qblur=0.5 / ip_ratio=1.30 / pb_ratio=1.20 / aq=3:0.80
Language : English
Default : Yes
Forced : No
Color range : Limited
Color primaries : BT.709
Transfer characteristics : BT.709
Matrix coefficients : BT.709

Audio #1
ID : 2
Format : AC-3
Format/Info : Audio Coding 3
Mode extension : CM (complete main)
Format settings, Endianness : Big
Codec ID : A_AC3
Duration : 1 h 54 min
Bit rate mode : Constant
Bit rate : 448 kb/s
Channel(s) : 6 channels
Channel positions : Front: L C R, Side: L R, LFE
Sampling rate : 48.0 kHz
Frame rate : 31.250 FPS (1536 spf)
Compression mode : Lossy
Stream size : 366 MiB (13%)
Title : MVO (Pifagor)
Language : Russian
Default : Yes
Forced : No

Audio #2
ID : 3
Format : AC-3
Format/Info : Audio Coding 3
Mode extension : CM (complete main)
Format settings, Endianness : Big
Codec ID : A_AC3
Duration : 1 h 54 min
Bit rate mode : Constant
Bit rate : 448 kb/s
Channel(s) : 6 channels
Channel positions : Front: L C R, Side: L R, LFE
Sampling rate : 48.0 kHz
Frame rate : 31.250 FPS (1536 spf)
Compression mode : Lossy
Stream size : 366 MiB (13%)
Language : English
Default : No
Forced : No

Text #1
ID : 4
Format : UTF-8
Codec ID : S_TEXT/UTF8
Codec ID/Info : UTF-8 Plain Text
Title : Forced
Language : Russian
Default : Yes
Forced : No

Text #2
ID : 5
Format : UTF-8
Codec ID : S_TEXT/UTF8
Codec ID/Info : UTF-8 Plain Text
Title : Full
Language : Russian
Default : No
Forced : No

Text #3
ID : 6
Format : UTF-8
Codec ID : S_TEXT/UTF8
Codec ID/Info : UTF-8 Plain Text
Title : Forced
Language : English
Default : No
Forced : No

Text #4
ID : 7
Format : UTF-8
Codec ID : S_TEXT/UTF8
Codec ID/Info : UTF-8 Plain Text
Language : English
Default : No
Forced : No


Релиз от:

Автор релиза: pb.wtf



Скачать Большой хак через торрент https://a.radikal.ru/a25/1907/79/890686db10ec.jpg Скачать, смотреть онлайн Большой хак бесплантно в хорошем качестве Описание: Кэмбридж Аналитика, частная английская компания, которая использует технологии глубинного анализа данных, проводит расследование ... 10 10 1
Info! Золотая раздача, скачанное не засчитывается.
Торрент: Зарегистрирован [2019-07-27 02:04] · скачан: 65 раз
Статус: √ проверено
Размер: 2.7 GB
Как cкачать? Как скачать Большой хак через торрент | UTorrent

% Раздел Тема Автор DL S | L
Научно-популярные фильмы [ 1.45 GB ] Большой хак / The Great Hack [2019 Документальный WEB-DLRip] MVO [Пифагор] - ExKinoRay Enigma2010 Скачать
9 | 0

28-11-2019 20:33  

Отключить вcю реклaмy на сайте

    Дорогой пользователь! Огромная просьба, поблагодарите релизера, оцените раздачу и оставьте свои комментарий, если Вы скачали Большой хак через торрент бесплатно!
    Комментировать посты могут только пользователи прошедшие не сложную регистрацию
    Показать сообщения:    

    Большой хак через торрент
    Скачать бесплатно Большой хак
    Большой хак скачать торрент
    Большой хак смотреть онлайн
    Cкачать фильм Большой хак бесплатно
    Большой хак скачать торрент в хорошем качестве
    Большой хак смотреть онлайн бесплатно в хорошем качестве


    Вы не можете начинать темы
    Вы не можете отвечать на сообщения
    Вы не можете редактировать свои сообщения
    Вы не можете удалять свои сообщения
    Вы не можете голосовать в опросах
    Вы не можете прикреплять файлы к сообщениям
    Вы можете скачивать файлы