Ссылка на приватное зеркало всего за 1$. Внимание количество ограничено!!!

OK

1+1

iTunes

мы

OK

1

WEB-DLRip

Джокер

Пифагор

Ведьмак / The Witcher сериал

iTunes

ПШазам

ОК

Оно 2

iTunes

30
pack

Вам бонус

ВАЖНО

!!Акция!!

Alien_RageХит недели

RePack

Resident Evil 21

ИГРА 18+

pack

RePack

jed

RePack

fifa19

RePack

Assassins Creed: Odyssey

RePack

NEED FOR SPEED™ PAYBACK

4 сезон

9 сезон

Бесстыжие 9 сезон

Все сериалы

все сериалы на PB.wtf

RePack

FAR CRY 5
  

Юнга со шхуны «Колумб» (Евгений Шерстобитов) [1963, СССР, детский, приключения, DVDRip-AVC от AVP Studio] pb.wtf

Юнга со шхуны «Колумб» через торрент pb.wtf

Раздают: 3 [ 0 KB/s ]
Размер: 744 MB | Добавлен: 5 мес. назад | Торрент скачан:7 раз
Скачать  

27-07-2019 12:49 Юнга со шхуны «Колумб» Скачать торрент  

Юнга со шхуны «Колумб»
Страна: СССР
Производство: Киностудия им. А. Довженко

Жанр: детский, приключения
Год выпуска: 1963
Продолжительность: 01:11:58

Перевод: Не требуется
Cубтитры: нет
Оригинальная аудиодорожка: русский

Режиссер: Евгений Шерстобитов

В ролях:
Ирина Мицик, Владимир Кисленко, Виктор Мирошниченко, Иван Рыжов, Сережа Кривошлыков, Татьяна Фатеева, Дмитрий Франько, Витольд Янпавлис...
Об актёрах подробней

Описание:
Подростки Марко и Лида, напав на след диверсанта, вовлекаются в гущу событий, связанных с поимкой шпиона. Благодаря ребятам, диверсанты, пытающиеся на захваченной шхуне «Колумб» уйти в открытое море, задерживаются пограничниками.

Источник: DVD5 R5
Качество видео: DVDRip-AVC
Формат видео: MKV

Видео: 688->740х390 (1,900:1), 25,000 fps, H264 ~ 1252 kbps avg, 0187 bit/pixel
Аудио: 48 kHz, Dolby Digital AC3 2.0, 192 kbps

Раздача от:
Общее
Полное имя : YUnga.so.shkhuny.Kolumb.1963.DVDRip-AVC_[New-team]_by_AVP_Studio.mkv
Формат : Matroska
Версия формата : Version 2
Размер файла : 744 Мбайт
Продолжительность : 1 ч. 11 м.
Общий поток : 1446 Кбит/сек
Дата кодирования : UTC 2019-07-18 18:03:34
Программа кодирования : mkvmerge v6.1.0 ('Old Devil') built on Mar 4 2013 09:10:42
Библиотека кодирования : libebml v1.3.0 + libmatroska v1.4.0

Видео
Идентификатор : 1
Формат : AVC
Формат/Информация : Advanced Video Codec
Профиль формата : High@L4.1
Настройки формата : CABAC / 10 Ref Frames
Параметр CABAC формата : Да
Параметр RefFrames формата : 10 кадров
Идентификатор кодека : V_MPEG4/ISO/AVC
Продолжительность : 1 ч. 11 м.
Битрейт : 1252 Кбит/сек
Ширина : 688 пикселей
Высота : 390 пикселей
Соотношение сторон : 1,900
Режим частоты кадров : Постоянный
Частота кадров : 25,000 кадров/сек
Цветовое пространство : YUV
Субдискретизация насыщенности : 4:2:0
Битовая глубина : 8 бит
Тип развёртки : Прогрессивная
Бит/(Пиксели*Кадры) : 0.187
Размер потока : 631 Мбайт (85%)
Библиотека кодирования : x264 core 157 r2932 303c484
Настройки программы : cabac=1 / ref=10 / deblock=1:-2:-1 / analyse=0x3:0x113 / me=umh / subme=10 / psy=1 / psy_rd=1.00:0.00 / mixed_ref=1 / me_range=32 / chroma_me=1 / trellis=2 / 8x8dct=1 / cqm=0 / deadzone=21,11 / fast_pskip=1 / chroma_qp_offset=-2 / threads=6 / lookahead_threads=1 / sliced_threads=0 / nr=0 / decimate=0 / interlaced=0 / bluray_compat=0 / constrained_intra=0 / bframes=8 / b_pyramid=2 / b_adapt=2 / b_bias=0 / direct=3 / weightb=1 / open_gop=0 / weightp=2 / keyint=250 / keyint_min=25 / scenecut=40 / intra_refresh=0 / rc=2pass / mbtree=0 / bitrate=1252 / ratetol=1.0 / qcomp=0.60 / qpmin=0 / qpmax=69 / qpstep=4 / cplxblur=20.0 / qblur=0.5 / ip_ratio=1.40 / pb_ratio=1.30 / aq=1:1.00
Default : Да
Forced : Нет

Аудио
Идентификатор : 2
Формат : AC-3
Формат/Информация : Audio Coding 3
Коммерческое название : Dolby Digital
Идентификатор кодека : A_AC3
Продолжительность : 1 ч. 11 м.
Вид битрейта : Постоянный
Битрейт : 192 Кбит/сек
Каналы : 2 канала
ChannelLayout : L R
Частота : 48,0 КГц
Частота кадров : 31,250 кадров/сек (1536 SPF)
Битовая глубина : 16 бит
Метод сжатия : С потерями
Размер потока : 98,8 Мбайт (13%)
Default : Да
Forced : Нет
pb.wtf



Скачать Юнга со шхуны «Колумб» через торрент http://picplus.ru/img/1907/26/8727a8a3.png Скачать фильм Юнга со шхуны «Колумб» через торрент бесплантно в хорошем качестве Описание:Подростки Марко и Лида, напав на след диверсанта, вовлекаются в гущу событий, связанных с поимкой шпиона. Благодаря ребятам, ... 9 10 2
Торрент: Зарегистрирован [2019-07-27 12:49] · скачан: 7 раз
Статус: √ проверено
Размер: 744 MB
Как cкачать? Как скачать Юнга со шхуны «Колумб» через торрент | qTorrent

% Раздел Тема Автор DL S | L
Детские отечественные фильмы [ 744 MB ] Юнга со шхуны «Колумб» [1963 СССР детский DVDRip от AVP Studio] AVP Studio Скачать
6 | 1
Детские отечественные фильмы [ 1.45 GB ] Юнга со шхуны «Колумб» [1963 детский DVDRip-AVC] smaster Скачать
1 | 0

28-11-2019 20:33  

Отключить всю рекламу на сайте

27-07-2019 13:16 Юнга со шхуны «Колумб» Скачать торрент  

Топик был перенесен из форума Кино СССР в форум Детские отечественные фильмы


bober100pb.wtf



    Дорогой пользователь! Огромная просьба, поблагодарите релизера, оцените раздачу и оставьте свои комментарий, если Вы скачали Юнга со шхуны «Колумб» через торрент бесплатно! Внесите свою лепту в развитие PiratBit!
    Комментировать посты могут только пользователи прошедшие не сложную регистрацию
    Показать сообщения:    

    Юнга со шхуны «Колумб» через торрент
    Скачать бесплатно Юнга со шхуны «Колумб»
    Юнга со шхуны «Колумб» скачать торрент
    Юнга со шхуны «Колумб» смотреть онлайн
    Cкачать фильм Юнга со шхуны «Колумб» бесплатно
    Юнга со шхуны «Колумб» скачать торрент в хорошем качестве
    Юнга со шхуны «Колумб» смотреть онлайн бесплатно в хорошем качестве


    Вы не можете начинать темы
    Вы не можете отвечать на сообщения
    Вы не можете редактировать свои сообщения
    Вы не можете удалять свои сообщения
    Вы не можете голосовать в опросах
    Вы не можете прикреплять файлы к сообщениям
    Вы можете скачивать файлы