Доктор Стрэндж

Лицензия

Добыча

Дубляж

Уэнсдэй

1 сезон

Тор

Дубляж

В эфире

Дубляж

Там, где раки поют

MVO

Властелин колец

1 сезон

Deluxe

pack

Рекомендуем

30

Пиратка

ВАЖНО

ВАЖНО

Ghostwire

Пиратка

jed

RePack

nioh2

RePack

RDR2

RePack

NEED FOR SPEED™ PAYBACK

RePack

скачать торрент

Кинопоиск HD

Острые козырьки 6 сезон

6 сезон

FAR CRY 6

RePack

скачать торрент

Лицензия

скачать торрент

MVO

1

1 сезон

скачать торрент

1 сезон

скачать торрент

Лицензия

  

Покемон. Детектив Пикачу 3Д / Pokémon Detective Pikachu 3D (Роб Леттерман) [2019, фантастика, фэнтези, детектив, приключения, семейный, BDRip 1080p] [Half OverUnder] Дубляж (rus, ukr) [Лицензия]

Покемон. Детектив Пикачу 3Д через торрент pb.wtf

Размер: 9.69 GB | Добавлен: 3 года 3 мес. назад | Торрент скачан:204 раза
Смотреть онлайн | Скачать   

07-08-2019 10:34 Покемон. Детектив Пикачу 3Д Скачать торрент  

Покемон. Детектив Пикачу 3Д
Pokémon Detective Pikachu 3D

Год выпуска: 2019
Страна: США, Япония
Жанр: фантастика, фэнтези, детектив, приключения, семейный
Продолжительность: 01:44:29
Перевод: Дублированный | Лицензия
Субтитры:
Вшитые (softsub):
#1 - Русские Форсированные (вер. Ash61) (включены по умолчанию)
#2 - Русские Полные
#3 - Украинские Форсированные (вер. Ash61)
#4 - English Full
#5 - English SDH

Внешние (UTF-8):
#1 - Русские Форсированные (вер. Ash61) (включены по умолчанию)
#2 - Русские Полные
#3 - Украинские Форсированные (вер. Ash61)

Режиссер: Роб Леттерман

rating

В ролях:

Райан Рейнольдс (Detective Pikachu, озвучка), Джастис Смит (Tim Goodman), Кэтрин Ньютон (Lucy Stevens), Билл Найи (Howard Clifford), Кэн Ватанабэ (Lieutenant Hide Yoshida), Крис Гир (Roger Clifford), Сьюки Уотерхаус (Ms. Norman), Джозетт Саймон (Grams), Алехандро Де Меса (Bartender), Рита Ора (Dr. Ann Laurent), Каран Сони (Jack), Макс Финчман (Young Tim Goodman)
Описание: История начинается с таинственного исчезновения частного детектива экстра- класса Гарри Гудмана, расследовать которое предстоит его 21-летнему сыну Тиму. Помощь в расследовании ему окажет бывший партнер отца, детектив Пикачу - уморительный, остроумный и обаятельный сыщик, который является загадкой даже для себя самого. Обнаружив, что они каким-то фантастическим образом способны общаться друг с другом, Тим и Пикачу объединяют усилия в захватывающем расследовании этой запутанной истории. В погоне за уликами по неоновым улицам Райм Сити - современного разросшегося мегаполиса, где люди и покемоны живут бок о бок в гиперреалистичном мире игрового экшна, - они встречают самых разнообразных покемонов и раскрывают ужасный заговор, который способен разрушить это мирное сосуществование и стать угрозой для всей вселенной покемонов.

Качество: BDRip 1080p
Формат: MKV

Видео: AVC / 1920х1080p / 23,976 fps / 12.0 Mbps
Аудио#1: Русский / AC3 / 48 KHz / 5.1 ch / 448 Kbps (Дубляж - BD 3D US)
Аудио#2: Украинский / AC3 / 48 KHz / 2 ch / 192 Kbps (Дубляж) (Спасибо Hurtom!)
Аудио#3: Английский / AC3 / 48 KHz / 5.1 ch / 640 Kbps (Original - BD 3D US)
Формат 3D: Half OverUnder / Вертикальная анаморфная стереопара
Порядок ракурсов: левый ракурс первый
скриншот  скриншот  скриншот  скриншот  скриншот  

скриншот  скриншот  скриншот  скриншот  скриншот  

General
Unique ID : 224449177665349866175776943328357213457 (0xA8DB56D781D770BAAD51D5AD24F36511)
Complete name : J:PokemonDetectivePikachu(2019)3D-hOU(Ash61)PokemonDetectivePikachu(2019)3D-hOU(Ash61).mkv
Format : Matroska
Format version : Version 2
File size : 9.69 GiB
Duration : 1h 44mn
Overall bit rate : 13.3 Mbps
Movie name : Покемон. Детектив Пикачу / Pokémon Detective Pikachu (2019) in 3D
Encoded date : UTC 2019-08-07 08:18:34
Writing application : mkvmerge v5.8.0 ('No Sleep / Pillow') built on Sep 2 2012 15:37:04
Writing library : libebml v1.2.3 + libmatroska v1.3.0

Video
ID : 1
Format : AVC
Format/Info : Advanced Video Codec
Format profile : [email protected]
Format settings, CABAC : Yes
Format settings, ReFrames : 4 frames
Codec ID : V_MPEG4/ISO/AVC
Duration : 1h 44mn
Bit rate : 12.0 Mbps
Width : 1 920 pixels
Height : 1 080 pixels
Display aspect ratio : 16:9
Frame rate mode : Constant
Frame rate : 23.976 (24000/1001) fps
Color space : YUV
Chroma subsampling : 4:2:0
Bit depth : 8 bits
Scan type : Progressive
Bits/(Pixel*Frame) : 0.241
Stream size : 8.57 GiB (88%)
Title : BDRip by Ash61
Writing library : x264 core 146 r2538 121396c
Encoding settings : cabac=1 / ref=4 / deblock=1:-3:-3 / analyse=0x3:0x113 / me=umh / subme=10 / psy=1 / psy_rd=1.00:0.00 / mixed_ref=1 / me_range=32 / chroma_me=1 / trellis=2 / 8x8dct=1 / cqm=0 / deadzone=21,11 / fast_pskip=0 / chroma_qp_offset=-2 / threads=12 / lookahead_threads=2 / sliced_threads=0 / nr=0 / decimate=0 / interlaced=0 / bluray_compat=0 / constrained_intra=0 / bframes=9 / b_pyramid=2 / b_adapt=2 / b_bias=0 / direct=3 / weightb=1 / open_gop=0 / weightp=2 / keyint=250 / keyint_min=23 / scenecut=40 / intra_refresh=0 / rc_lookahead=60 / rc=2pass / mbtree=0 / bitrate=12000 / ratetol=1.0 / qcomp=0.70 / qpmin=0 / qpmax=69 / qpstep=4 / cplxblur=20.0 / qblur=0.5 / vbv_maxrate=40000 / vbv_bufsize=30000 / nal_hrd=none / filler=0 / frame-packing=4 / ip_ratio=1.40 / pb_ratio=1.30 / aq=1:0.70
Language : English
Default : Yes
Forced : No

Audio #1
ID : 2
Format : AC-3
Format/Info : Audio Coding 3
Mode extension : CM (complete main)
Format settings, Endianness : Big
Codec ID : A_AC3
Duration : 1h 44mn
Bit rate mode : Constant
Bit rate : 448 Kbps
Channel(s) : 6 channels
Channel positions : Front: L C R, Side: L R, LFE
Sampling rate : 48.0 KHz
Frame rate : 31.250 fps (1536 spf)
Compression mode : Lossy
Stream size : 335 MiB (3%)
Title : Дубляж (BD 3D US)
Language : Russian
Default : Yes
Forced : No

Audio #2
ID : 3
Format : AC-3
Format/Info : Audio Coding 3
Mode extension : CM (complete main)
Format settings, Endianness : Big
Codec ID : A_AC3
Duration : 1h 44mn
Bit rate mode : Constant
Bit rate : 192 Kbps
Channel(s) : 2 channels
Channel positions : Front: L R
Sampling rate : 48.0 KHz
Frame rate : 31.250 fps (1536 spf)
Compression mode : Lossy
Stream size : 143 MiB (1%)
Title : Дубляж
Language : Ukrainian
Default : No
Forced : No

Audio #3
ID : 4
Format : AC-3
Format/Info : Audio Coding 3
Mode extension : CM (complete main)
Format settings, Endianness : Big
Codec ID : A_AC3
Duration : 1h 44mn
Bit rate mode : Constant
Bit rate : 640 Kbps
Channel(s) : 6 channels
Channel positions : Front: L C R, Side: L R, LFE
Sampling rate : 48.0 KHz
Frame rate : 31.250 fps (1536 spf)
Compression mode : Lossy
Stream size : 478 MiB (5%)
Title : Original (BD 3D US)
Language : English
Default : No
Forced : No

Text #1
ID : 5
Format : UTF-8
Codec ID : S_TEXT/UTF8
Codec ID/Info : UTF-8 Plain Text
Title : Форсированные (вер.Ash61)
Language : Russian
Default : Yes
Forced : No

Text #2
ID : 6
Format : UTF-8
Codec ID : S_TEXT/UTF8
Codec ID/Info : UTF-8 Plain Text
Title : Полные
Language : Russian
Default : No
Forced : No

Text #3
ID : 7
Format : UTF-8
Codec ID : S_TEXT/UTF8
Codec ID/Info : UTF-8 Plain Text
Title : Форсированные (вер.Ash61)
Language : Ukrainian
Default : No
Forced : No

Text #4
ID : 8
Format : UTF-8
Codec ID : S_TEXT/UTF8
Codec ID/Info : UTF-8 Plain Text
Title : Full
Language : English
Default : No
Forced : No

Text #5
ID : 9
Format : UTF-8
Codec ID : S_TEXT/UTF8
Codec ID/Info : UTF-8 Plain Text
Title : SDH
Language : English
Default : No
Forced : No

Menu
00:00:00.000 : :1
00:06:55.957 : :2
00:15:36.686 : :3
00:24:06.445 : :4
00:31:00.108 : :5
00:40:45.943 : :6
00:49:57.077 : :7
00:59:49.669 : :8
01:09:22.784 : :9
01:16:59.990 : :10
01:23:20.829 : :11
01:30:55.367 : :12
01:35:49.160 : :13




Скачать Покемон. Детектив Пикачу 3Д через торрент https://d.radikal.ru/d40/1908/6e/07e5ecafb015.png Скачать, смотреть онлайн Покемон. Детектив Пикачу 3Д бесплантно в хорошем качестве Описание: История начинается с таинственного исчезновения частного детектива экстра- класса Гарри Гудмана, расследовать которое предстоит ... 10 10 3
Торрент: Зарегистрирован [2019-08-07 10:34] · скачан: 204 раз
Статус: √ проверено
Размер: 9.69 GB
Как cкачать? Как скачать Покемон. Детектив Пикачу 3Д через торрент | UTorrent

% Раздел Тема Автор DL S | L
3D Фильмы [ 22.53 GB ] Покемон. Детектив Пикачу в 3Д / Pokémon Detective Pikachu 3D | а | 1080p serega768 Скачать
1 | 0

28-11-2019 20:33  


Отключить вcю реклaмy на сайте, в т.ч. и в плеере онлайн просмотра!

    Дорогой пользователь! Огромная просьба, поблагодарите релизера, оцените раздачу и оставьте свои комментарий, если Вы скачали Покемон. Детектив Пикачу 3Д через торрент бесплатно!!
    Комментировать посты могут только пользователи прошедшие не сложную регистрацию
    Показать сообщения:    


    Покемон. Детектив Пикачу 3Д через торрент
    Скачать бесплатно Покемон. Детектив Пикачу 3Д
    Покемон. Детектив Пикачу 3Д скачать торрент
    Покемон. Детектив Пикачу 3Д смотреть онлайн
    Cкачать фильм Покемон. Детектив Пикачу 3Д бесплатно
    Покемон. Детектив Пикачу 3Д скачать торрент в хорошем качестве
    Покемон. Детектив Пикачу 3Д смотреть онлайн бесплатно в хорошем качестве
    Вы не можете начинать темы
    Вы не можете отвечать на сообщения
    Вы не можете редактировать свои сообщения
    Вы не можете удалять свои сообщения
    Вы не можете голосовать в опросах
    Вы не можете прикреплять файлы к сообщениям
    Вы можете скачивать файлы
    Покемон. Детектив Пикачу 3Д / Pokémon Detective Pikachu 3D [2019, фантастика, фэнтези, детектив, приключения, семейный, BDRip 1080p] [Half OverUnder] Дубляж [Лицензия] смотреть онлайн, скачать торрент picoco.icu