Доктор Стрэндж

Лицензия

Добыча

Дубляж

Дом дракона

1 сезон

Тор

Дубляж

В эфире

Дубляж

Там, где раки поют

MVO

Властелин колец

1 сезон

GLOBAL

pack

Рекомендуем

30

Пиратка

ВАЖНО

ВАЖНО

Ghostwire

Пиратка

jed

RePack

nioh2

RePack

RDR2

RePack

NEED FOR SPEED™ PAYBACK

RePack

скачать торрент

Кинопоиск HD

Острые козырьки 6 сезон

6 сезон

FAR CRY 6

RePack

скачать торрент

Лицензия

скачать торрент

MVO

1

1 сезон

скачать торрент

1 сезон

скачать торрент

Лицензия

  

Очень плохая училка / Bad Teacher (Джейк Кэздан) [2011, комедия, BDRip 720p] [UNRATED] Дубляж+AVO+VO

Очень плохая училка через торрент pb.wtf

Размер: 7.76 GB | Добавлен: 3 года 3 мес. назад | Торрент скачан:77 раз
Смотреть онлайн | Скачать   

11-08-2019 17:31 Очень плохая училка Скачать торрент  

Очень плохая училка / Bad TeacherUNRATED
Год выпуска: 2011
Страна: США
Жанр: комедия
Продолжительность: 01:37:37
Перевод: Дублированный [со вставками А.Матвеева], Авторский [одноголосый], Любительский одноголосый
Субтитры: русские (форс.), русские (х2), английские (Full), английские (SDH)

Режиссер: Джейк Кэздан / Jake Kasdan

rating

В ролях: Кэмерон Диаз (Elizabeth Halsey), Джастин Тимберлейк (Scott Delacorte), Джейсон Сигел (Russell Gettis), Люси Панч (Amy Squirrel), Филлис Смит (Lynn Davies), Джон Майкл Хиггинс (Principal Wally Snur), Мэттью Дж. Эванс (Garrett Tiara), Кейтлин Дивер (Sasha Abernathy), Томас Леннон (Carl Halabi), Эрик Стоунстрит (Kirk), Нат Факсон (Mark), Дэйв Аллен (Sandy Pinkus)

Описание: Учительница средних классов живет гламурной жизнью светской львицы, ходит на работу как на вечеринку и мечтает об увеличении объема собственного бюста. Однако после внезапного разрыва с богатым бойфрендом ее образ жизни резко меняется, хотя сама она это осознает не сразу. Но когда в их школу приходит новый преподаватель, она совершенно теряет голову и начинает охоту за... деньгами.

Качество: BDRip 720p
Формат: MKV

Видео: AVC, 1280x692 (1.85:1), 8819 kbps, 23,976 fps
Аудио#1: AC3 / 5.1 / 48 kHz / 640 kbps / 16 bit | Дубляж + А.Матвеев
Аудио#2: AC3 / 5.1 / 48 kHz / 640 kbps / 16 bit | А.Матвеев*
Аудио#3: AC3 / 5.1 / 48 kHz / 640 kbps / 16 bit | В.Замез
Аудио#4: AC3 / 5.1 / 48 kHz / 640 kbps / 16 bit | ENG
скриншот  скриншот  скриншот  

скриншот  скриншот  скриншот  

Общее
Уникальный идентификатор : 186343335212012133970087131687033715200 (0x8C306BC18E565E3DB1D2C9771C5B3A00)
Полное имя : D:\Ochen.Plohaya.Uchilka.2011.UC.3xRus.Eng.BDRip.720p.-HELLYWOOD.mkv
Формат : Matroska
Версия формата : Version 4 / Version 2
Размер файла : 7,76 Гбайт
Продолжительность : 1 ч. 37 м.
Общий поток : 11,4 Мбит/сек
Название фильма : Bad Teacher (2011)
Дата кодирования : UTC 2017-12-16 16:29:18
Программа кодирования : mkvmerge v5.9.0 ('On The Loose') built on Dec 15 2012 16:39:58
Библиотека кодирования : libebml v1.3.0 + libmatroska v1.4.0

Видео
Идентификатор : 1
Формат : AVC
Формат/Информация : Advanced Video Codec
Профиль формата : [email protected]
Параметр CABAC формата : Да
Параметр RefFrames формата : 9 кадров
Идентификатор кодека : V_MPEG4/ISO/AVC
Продолжительность : 1 ч. 37 м.
Битрейт : 8819 Кбит/сек
Ширина : 1280 пикселей
Высота : 692 пикселя
Соотношение сторон : 1,85:1
Режим частоты кадров : Постоянный
Частота кадров : 23,976 (24000/1001) кадра/сек
Цветовое пространство : YUV
Субдискретизация насыщенности : 4:2:0
Битовая глубина : 8 бит
Тип развёртки : Прогрессивная
Бит/(Пиксели*Кадры) : 0.415
Размер потока : 5,86 Гбайт (76%)
Заголовок : potroks
Библиотека кодирования : x264 core 152 r2851M ba24899
Настройки программы : cabac=1 / ref=9 / deblock=1:-1:-1 / analyse=0x3:0x132 / me=umh / subme=11 / psy=1 / psy_rd=0.98:0.05 / mixed_ref=1 / me_range=48 / chroma_me=1 / trellis=2 / 8x8dct=1 / cqm=0 / deadzone=21,11 / fast_pskip=0 / chroma_qp_offset=-3 / threads=9 / lookahead_threads=2 / sliced_threads=0 / nr=0 / decimate=0 / interlaced=0 / bluray_compat=0 / constrained_intra=0 / bframes=12 / b_pyramid=2 / b_adapt=2 / b_bias=0 / direct=3 / weightb=1 / open_gop=0 / weightp=2 / keyint=240 / keyint_min=23 / scenecut=40 / intra_refresh=0 / rc_lookahead=0 / rc=2pass / mbtree=0 / bitrate=8819 / ratetol=1.0 / qcomp=0.70 / qpmin=0 / qpmax=69 / qpstep=4 / cplxblur=20.0 / qblur=0.5 / vbv_maxrate=50000 / vbv_bufsize=35714 / nal_hrd=none / filler=0 / ip_ratio=1.40 / pb_ratio=1.30 / aq=1:0.75
Язык : English
Default : Да
Forced : Нет

Аудио #1
Идентификатор : 2
Формат : AC-3
Формат/Информация : Audio Coding 3
Расширение режима : CM (complete main)
Параметр Endianness формата : Big
Идентификатор кодека : A_AC3
Продолжительность : 1 ч. 37 м.
Вид битрейта : Постоянный
Битрейт : 640 Кбит/сек
Каналы : 6 каналов
Расположение каналов : Front: L C R, Side: L R, LFE
Частота : 48,0 КГц
Частота кадров : 31,250 кадров/сек (1536 spf)
Метод сжатия : С потерями
Размер потока : 447 Мбайт (6%)
Заголовок : Дубляж | DD 5.1 @ 640 kbps + A.Matveev
Язык : Russian
Default : Да
Forced : Нет

Аудио #2
Идентификатор : 3
Формат : AC-3
Формат/Информация : Audio Coding 3
Расширение режима : CM (complete main)
Параметр Endianness формата : Big
Идентификатор кодека : A_AC3
Продолжительность : 1 ч. 37 м.
Вид битрейта : Постоянный
Битрейт : 640 Кбит/сек
Каналы : 6 каналов
Расположение каналов : Front: L C R, Side: L R, LFE
Частота : 48,0 КГц
Частота кадров : 31,250 кадров/сек (1536 spf)
Метод сжатия : С потерями
Размер потока : 447 Мбайт (6%)
Заголовок : AVO | DD 5.1 @ 640 kbps - A.Matveev
Язык : Russian
Default : Нет
Forced : Нет

Аудио #3
Идентификатор : 4
Формат : AC-3
Формат/Информация : Audio Coding 3
Расширение режима : CM (complete main)
Параметр Endianness формата : Big
Идентификатор кодека : A_AC3
Продолжительность : 1 ч. 37 м.
Вид битрейта : Постоянный
Битрейт : 640 Кбит/сек
Каналы : 6 каналов
Расположение каналов : Front: L C R, Side: L R, LFE
Частота : 48,0 КГц
Частота кадров : 31,250 кадров/сек (1536 spf)
Метод сжатия : С потерями
Размер потока : 447 Мбайт (6%)
Заголовок : VO | DD 5.1 @ 640 kbps - Zamez
Язык : Russian
Default : Нет
Forced : Нет

Аудио #4
Идентификатор : 5
Формат : AC-3
Формат/Информация : Audio Coding 3
Расширение режима : CM (complete main)
Параметр Endianness формата : Big
Идентификатор кодека : A_AC3
Продолжительность : 1 ч. 37 м.
Вид битрейта : Постоянный
Битрейт : 640 Кбит/сек
Каналы : 6 каналов
Расположение каналов : Front: L C R, Side: L R, LFE
Частота : 48,0 КГц
Частота кадров : 31,250 кадров/сек (1536 spf)
Метод сжатия : С потерями
Размер потока : 447 Мбайт (6%)
Заголовок : Original | DD 5.1 @ 640 kbps
Язык : English
Default : Нет
Forced : Нет

Текст #1
Идентификатор : 6
Формат : UTF-8
Идентификатор кодека : S_TEXT/UTF8
Идентификатор кодека/Информация : UTF-8 Plain Text
Заголовок : Forced
Язык : Russian
Default : Да
Forced : Нет

Текст #2
Идентификатор : 7
Формат : UTF-8
Идентификатор кодека : S_TEXT/UTF8
Идентификатор кодека/Информация : UTF-8 Plain Text
Язык : Russian
Default : Нет
Forced : Нет

Текст #3
Идентификатор : 8
Формат : UTF-8
Идентификатор кодека : S_TEXT/UTF8
Идентификатор кодека/Информация : UTF-8 Plain Text
Заголовок : A.Matveev
Язык : Russian
Default : Нет
Forced : Нет

Текст #4
Идентификатор : 9
Формат : UTF-8
Идентификатор кодека : S_TEXT/UTF8
Идентификатор кодека/Информация : UTF-8 Plain Text
Заголовок : Full
Язык : English
Default : Нет
Forced : Нет

Текст #5
Идентификатор : 10
Формат : UTF-8
Идентификатор кодека : S_TEXT/UTF8
Идентификатор кодека/Информация : UTF-8 Plain Text
Заголовок : SDH
Язык : English
Default : Нет
Forced : Нет

Меню
00:00:00.000 : :00:00:00.000
00:06:32.767 : :00:06:32.767
00:11:46.915 : :00:11:46.915
00:19:41.972 : :00:19:41.972
00:24:44.900 : :00:24:44.900
00:33:07.235 : :00:33:07.235
00:41:08.841 : :00:41:08.841
00:45:41.030 : :00:45:41.030
00:49:59.413 : :00:49:59.413
00:52:48.957 : :00:52:48.957
00:57:37.204 : :00:57:37.204
01:03:36.938 : :01:03:36.938
01:11:14.187 : :01:11:14.187
01:15:57.928 : :01:15:57.928
01:22:34.199 : :01:22:34.199
01:28:46.530 : :01:28:46.530




Скачать Очень плохая училка через торрент http://i2-imageban-ru.translate.goog/out/2017/12/16/17a0466ba63669bfbe72acc669a49a64.png Скачать, смотреть онлайн Очень плохая училка бесплантно в хорошем качестве Описание: Учительница средних классов живет гламурной жизнью светской львицы, ходит на работу как на вечеринку и мечтает об увеличении ... 10 10 5
Торрент: Зарегистрирован [2019-08-11 17:31] · скачан: 77 раз
Статус: √ проверено
Размер: 7.76 GB
Как cкачать? Как скачать Очень плохая училка через торрент | UTorrent

28-11-2019 20:33  


Отключить вcю реклaмy на сайте, в т.ч. и в плеере онлайн просмотра!

    Дорогой пользователь! Огромная просьба, поблагодарите релизера, оцените раздачу и оставьте свои комментарий, если Вы скачали Очень плохая училка через торрент бесплатно!!
    Комментировать посты могут только пользователи прошедшие не сложную регистрацию
    Показать сообщения:    


    Очень плохая училка через торрент
    Скачать бесплатно Очень плохая училка
    Очень плохая училка скачать торрент
    Очень плохая училка смотреть онлайн
    Cкачать фильм Очень плохая училка бесплатно
    Очень плохая училка скачать торрент в хорошем качестве
    Очень плохая училка смотреть онлайн бесплатно в хорошем качестве
    Вы не можете начинать темы
    Вы не можете отвечать на сообщения
    Вы не можете редактировать свои сообщения
    Вы не можете удалять свои сообщения
    Вы не можете голосовать в опросах
    Вы не можете прикреплять файлы к сообщениям
    Вы можете скачивать файлы
    Очень плохая училка / Bad Teacher [2011, комедия, BDRip 720p] [UNRATED] Дубляж+AVO+VO смотреть онлайн, скачать торрент picoco.icu