Всегда рабочее зеркало без VPN и Proxy просто перед .vidak.icu напиши любое слово или цифру, Пример http://claj.vidak.icu

MVO

Лицензия

1 сезон

1

1 сезон

iTunes

1 сезон

13

1 сезон

Deluxe

pack

Рекомендуем

Repack

30

ВАЖНО

RePack

MK11

RePack

jed

RePack

fifa19

RePack

RDR2

RePack

NEED FOR SPEED™ PAYBACK

Кинопоиск HD

6 сезон

 Острые козырьки 6 сезон

Все сериалы

все сериалы на PB.wtf

RePack

FAR CRY 5
  
Magnet ссылка

Железный человек 3 / Iron Man 3 (Шейн Блэк) [2013, фантастика, боевик, приключения, UHD BDRemux 2160p] DUB (rus, ukr) [Лицензия] +AVO [Ю. Живов] pb.wtf

Железный человек 3 через торрент pb.wtf

Размер: 68.28 GB | Добавлен: 2 года 10 мес. назад | Торрент скачан:89 раз
Смотреть онлайн Железный человек 3 | Скачать    Ребята, помогите собрать деньги на оплату серверов!!!

12-08-2019 20:49 Железный человек 3 Скачать торрент  

Железный человек 3 / Iron Man 3
Год выпуска: 2013
Страна: США, Китай
Жанр: фантастика, боевик, приключения
Продолжительность: 02:10:55
Перевод: Дублированный [Лицензия], Авторский (одноголосый, закадровый) (Ю.Живов)
Субтитры: Английские (Full-length, SDH, Commenary), Русские (Full-length, Commenary), Украинские (Full-length)

Режиссер: Шейн Блэк

rating

В ролях: Роберт Дауни мл., Гвинет Пэлтроу, Дон Чидл, Гай Пирс, Бен Кингсли, Ребекка Холл, Тай Симпкинс, Джеймс Бэдж Дэйл, Уильям Сэдлер, Стефани Зостак, Джон Фавро, Пол Беттани, Эшли Хэмилтон

Описание: Когда мир Старка рушится на его глазах по вине неизвестных противников, Тони жаждет найти виновных и свести с ними счеты. Оказавшись в безвыходной ситуации, Старк может рассчитывать только на себя и свою изобретательность, чтобы защитить тех, кто ему дорог. Это становится настоящим испытанием для героя, которому придется не только сражаться с коварным врагом, но и разобраться в себе, чтобы найти ответ на вопрос, который давно его тревожит: что важнее — человек или костюм?

Качество: UHD BDRemux 2160p
Формат: MKV

Видео: HEVC/H.265 HDR, 3840x2160p, (16:9), 60.0 Mb/s, 23,976 fps
Аудио#1: DTS-HD MA, 6 ch, 3840 kbps - Русский, Дубляж
Аудио#2: AC3, 6 ch, 384 kbps - Украинский
Аудио#3: DTS-HD MA, 8 ch, 4 899 kbps - Русский, Ю.Живов
Аудио#4: DTS-HD MA, 8 ch, 4840 kbps - Английский
Аудио#5: AC3, 2 ch, 224 kbps - Английский, комментарии
скриншот  скриншот  скриншот  

General
Unique ID : 215447090538989230418125750677213974470 (0xA21599ADEAC8B99ABB3295F77FA28FC6)
Complete name : IRON_MAN3_BD_UHD_HDR_RMX-BLUEBIRD.mkv
Format : Matroska
Format version : Version 4 / Version 2
File size : 68.3 GiB
Duration : 2 h 11 min
Overall bit rate : 74.5 Mb/s
Movie name : IRON_MAN3_BD_UHD_HDR_RMX-BLUEBIRD
Encoded date : UTC 2017-10-10 09:07:40
Writing application : mkvmerge v16.0.0 ('Protest') 64-bit
Writing library : libebml v1.3.5 + libmatroska v1.4.8
Cover : Yes
Attachments : cover.png

Video
ID : 1
Format : HEVC
Format/Info : High Efficiency Video Coding
Format profile : Main [email protected]@High
Codec ID : V_MPEGH/ISO/HEVC
Duration : 2 h 11 min
Bit rate : 60.0 Mb/s
Width : 3 840 pixels
Height : 2 160 pixels
Display aspect ratio : 16:9
Frame rate mode : Constant
Frame rate : 23.976 (23976/1000) FPS
Standard : Component
Color space : YUV
Chroma subsampling : 4:2:0 (Type 2)
Bit depth : 10 bits
Bits/(Pixel*Frame) : 0.302
Stream size : 55.0 GiB (80%)
Title : IRON_MAN3_BD_UHD_HDR_RMX-BLUEBIRD
Default : Yes
Forced : No
Color range : Limited
Color primaries : BT.2020
Transfer characteristics : SMPTE ST 2084
Matrix coefficients : BT.2020 non-constant
Mastering display color primaries : R: x=0.680000 y=0.320000, G: x=0.265000 y=0.690000, B: x=0.150000 y=0.060000, White point: x=0.312700 y=0.329000
Mastering display luminance : min: 0.0050 cd/m2, max: 1000.0000 cd/m2

Audio #1
ID : 2
Format : DTS
Format/Info : Digital Theater Systems
Format profile : MA / Core
Mode : 16
Format settings, Endianness : Big
Codec ID : A_DTS
Duration : 2 h 10 min
Bit rate mode : Variable / Constant
Bit rate : 3 840 kb/s / 1 509 kb/s
Channel(s) : 6 channels
Channel positions : Front: L C R, Side: L R, LFE
Sampling rate : 48.0 kHz
Frame rate : 93.750 FPS (512 SPF)
Bit depth : 24 bits
Compression mode : Lossless / Lossy
Stream size : 3.56 GiB (5%)
Title : [DUB] DTS MA 5.1 @ 3890 kbps
Language : Russian
Default : Yes
Forced : No

Audio #2
ID : 3
Format : AC-3
Format/Info : Audio Coding 3
Format settings, Endianness : Big
Codec ID : A_AC3
Duration : 2 h 10 min
Bit rate mode : Constant
Bit rate : 384 kb/s
Channel(s) : 6 channels
Channel positions : Front: L C R, Side: L R, LFE
Sampling rate : 48.0 kHz
Frame rate : 31.250 FPS (1536 SPF)
Bit depth : 16 bits
Compression mode : Lossy
Stream size : 360 MiB (1%)
Title : [DUB] DD 5.1 @ 384 kbps
Language : Ukrainian
Service kind : Complete Main
Default : No
Forced : No

Audio #3
ID : 4
Format : DTS
Format/Info : Digital Theater Systems
Format profile : MA / Core
Mode : 16
Format settings, Endianness : Big
Codec ID : A_DTS
Duration : 2 h 10 min
Bit rate mode : Variable / Constant
Bit rate : 4 899 kb/s / 1 509 kb/s
Channel(s) : 8 channels / 6 channels
Channel positions : Front: L C R, Side: L R, Back: L R, LFE / Front: L C R, Side: L R, LFE
Sampling rate : 48.0 kHz
Frame rate : 93.750 FPS (512 SPF)
Bit depth : 24 bits
Compression mode : Lossless / Lossy
Stream size : 4.48 GiB (7%)
Title : [VO] DTS MA 5.1 @ 4909 kbps
Language : Russian
Default : No
Forced : No

Audio #4
ID : 5
Format : DTS
Format/Info : Digital Theater Systems
Format profile : MA / Core
Mode : 16
Format settings, Endianness : Big
Codec ID : A_DTS
Duration : 2 h 11 min
Bit rate mode : Variable / Constant
Bit rate : 4 840 kb/s / 1 509 kb/s
Channel(s) : 8 channels / 6 channels
Channel positions : Front: L C R, Side: L R, Back: L R, LFE / Front: L C R, Side: L R, LFE
Sampling rate : 48.0 kHz
Frame rate : 93.750 FPS (512 SPF)
Bit depth : 24 bits
Compression mode : Lossless / Lossy
Stream size : 4.43 GiB (6%)
Title : [ORIGINAL] DTS-HD MA 7.1
Language : English
Default : No
Forced : No

Audio #5
ID : 6
Format : AC-3
Format/Info : Audio Coding 3
Format settings, Endianness : Big
Codec ID : A_AC3
Duration : 2 h 11 min
Bit rate mode : Constant
Bit rate : 224 kb/s
Channel(s) : 2 channels
Channel positions : Front: L R
Sampling rate : 48.0 kHz
Frame rate : 31.250 FPS (1536 SPF)
Bit depth : 16 bits
Compression mode : Lossy
Stream size : 210 MiB (0%)
Title : [Commentary]
Language : English
Service kind : Complete Main
Default : No
Forced : No

Text #1
ID : 7
Format : PGS
Codec ID : S_HDMV/PGS
Codec ID/Info : Picture based subtitle format used on BDs/HD-DVDs
Duration : 2 h 10 min
Bit rate : 37.7 kb/s
Count of elements : 3480
Stream size : 35.0 MiB (0%)
Title : Full-length
Language : English
Default : No
Forced : No

Text #2
ID : 8
Format : PGS
Codec ID : S_HDMV/PGS
Codec ID/Info : Picture based subtitle format used on BDs/HD-DVDs
Duration : 2 h 10 min
Bit rate : 46.1 kb/s
Count of elements : 4342
Stream size : 42.8 MiB (0%)
Title : SDH
Language : English
Default : No
Forced : No

Text #3
ID : 9
Format : PGS
Codec ID : S_HDMV/PGS
Codec ID/Info : Picture based subtitle format used on BDs/HD-DVDs
Duration : 2 h 10 min
Bit rate : 34.7 kb/s
Count of elements : 3458
Stream size : 32.3 MiB (0%)
Title : Full-length
Language : Russian
Default : No
Forced : No

Text #4
ID : 10
Format : PGS
Codec ID : S_HDMV/PGS
Codec ID/Info : Picture based subtitle format used on BDs/HD-DVDs
Duration : 2 h 10 min
Bit rate : 36.6 kb/s
Count of elements : 3560
Stream size : 34.1 MiB (0%)
Title : Full-length
Language : Ukrainian
Default : No
Forced : No

Text #5
ID : 11
Format : PGS
Codec ID : S_HDMV/PGS
Codec ID/Info : Picture based subtitle format used on BDs/HD-DVDs
Duration : 2 h 10 min
Bit rate : 79.2 kb/s
Count of elements : 4976
Stream size : 73.7 MiB (0%)
Title : [Commentary]
Language : English
Default : No
Forced : No

Text #6
ID : 12
Format : PGS
Codec ID : S_HDMV/PGS
Codec ID/Info : Picture based subtitle format used on BDs/HD-DVDs
Duration : 2 h 10 min
Bit rate : 71.8 kb/s
Count of elements : 4846
Stream size : 66.9 MiB (0%)
Title : [Commentary]
Language : Russian
Default : No
Forced : No

Menu
00:00:00.000 : en:New Year's Eve, 1999
00:05:15.064 : en:R60 Department
00:08:18.747 : en:The Mandarin
00:12:34.754 : en:Killian Returns
00:19:26.415 : en:Tony & Pepper at Home
00:24:10.198 : en:Happy Follows Savin
00:30:10.016 : en:House Attack
00:40:08.698 : en:Rose Hill, Tennessee
00:46:18.358 : en:Unraveling the Past
00:59:41.953 : en:The Mandarin Teaches a Lesson
01:02:19.235 : en:Tony Hacks A.I.M.
01:09:46.765 : en:Locating the Mandarin
01:19:03.822 : en:Captured by Killian
01:24:15.258 : en:Attack on Air Force One
01:38:18.309 : en:Showdown at the Docks
01:56:40.618 : en:New Beginnings
02:00:01.068 : en:End Credits

pb.wtf



Скачать Железный человек 3 через торрент http://s019.radikal.ru/i626/1710/4c/35b94af522b4.jpg Скачать, смотреть онлайн Железный человек 3 бесплантно в хорошем качестве Описание: Когда мир Старка рушится на его глазах по вине неизвестных противников, Тони жаждет найти виновных и свести с ними счеты. ... 9.3 10 4
Торрент: Зарегистрирован [2019-08-12 20:49] · скачан: 89 раз
Статус: √ проверено
Размер: 68.28 GB
Как cкачать? Как скачать Железный человек 3 через торрент | UTorrent

% Раздел Тема Автор DL S | L
Ultra HD (UHD: 2K, 4K, 8K) — видео сверхвысокой чёткости [ 13.89 GB ] Железный человек 3 / Iron Man 3 [2013 UHD BDRip 2160p] DUB [] +AVO [Ю. Живов] bober100 Скачать
1 | 1
Фильмы с авторской озвучкой [ 1.46 GB ] Железный человек 3 / Iron Man 3 [2013 HDRip] [AVO] killermax2013 Скачать
1 | 0
Фильмы с авторской озвучкой [ 2.17 GB ] Железный человек 3 / Iron Man Three [2013 BDRip Авторский одноголосый "Ю.Живов"] coc900 Скачать
1 | 0
Фильмы 2013 [DVDrip, WEB-DLRip, HDrip] [ 2.18 GB ] Железный человек 3 / Iron Man 3 [ 2013 Китай BDRip-AVC лицензия] МАКС1 Скачать
1 | 0
Фильмы 2013 [DVDrip, WEB-DLRip, HDrip] [ 1.46 GB ] Железный человек 3 / Iron Man 3 [ 2013 Китай HDRip ] DUB [ лицензия ] Ворон Скачать
1 | 0
3D Фильмы [ 43.87 GB ] Железный человек 3 / Iron Man 3 [2013 Blu-ray 3D DUB] [ISO] / BD2D|3D Half OverUnder / Вертикальная анаморфная стереопара лисяра Скачать
1 | 0
3D Фильмы [ 6.69 GB ] Железный человек 3 / Iron Man 3 [2013 BDRip 1080p лицензия] Half OverUnder / Вертикальная анаморфная стереопара slaventi-69 Скачать
1 | 0

28-11-2019 20:33  

Отключить всю рекламу на сайте

    Дорогой пользователь! Огромная просьба, поблагодарите релизера, оцените раздачу и оставьте свои комментарий, если Вы скачали Железный человек 3 через торрент бесплатно!
    Комментировать посты могут только пользователи прошедшие не сложную регистрацию
    Показать сообщения:    

    Железный человек 3 через торрент
    Скачать бесплатно Железный человек 3
    Железный человек 3 скачать торрент
    Железный человек 3 смотреть онлайн
    Cкачать фильм Железный человек 3 бесплатно
    Железный человек 3 скачать торрент в хорошем качестве
    Железный человек 3 смотреть онлайн бесплатно в хорошем качестве


    Вы не можете начинать темы
    Вы не можете отвечать на сообщения
    Вы не можете редактировать свои сообщения
    Вы не можете удалять свои сообщения
    Вы не можете голосовать в опросах
    Вы не можете прикреплять файлы к сообщениям
    Вы можете скачивать файлы