Всегда рабочее зеркало без VPN и Proxy просто перед .vidak.icu напиши любое слово или цифру, Пример http://oxat.vidak.icu

MVO

MVO

1 сезон

1

1 сезон

iTunes

1 сезон

13

1 сезон

Deluxe

pack

Рекомендуем

Repack

30

ВАЖНО

RePack

MK11

RePack

jed

RePack

fifa19

RePack

RDR2

RePack

NEED FOR SPEED™ PAYBACK

Кинопоиск HD

6 сезон

 Острые козырьки 6 сезон

Все сериалы

все сериалы на PB.wtf

RePack

FAR CRY 5
  
Magnet ссылка

В поисках «Восточного экспресса» / In search of the Orient-Express / Серии: 1-2 из 2 (Луи-Паскаль Кувлер) [2018, Документальный, история, расследование, HDTVRip] [VO] (SDI Media) pb.wtf

В поисках «Восточного экспресса» через торрент pb.wtf

Размер: 1.26 GB | Добавлен: 2 года 11 мес. назад | Торрент скачан:14 раз
Смотреть онлайн В поисках «Восточного экспресса» | Скачать    Ребята, помогите собрать деньги на оплату серверов!!!

23-08-2019 17:31 В поисках «Восточного экспресса» Скачать торрент  

В поисках «Восточного экспресса» / In search of the Orient-Express

Год выпуска: 2018
Страна: Франция, BBC Studios France
Жанр: Документальный, история, расследование
Продолжительность: 2 х ~ 00:43:00
Перевод: Студийный (одноголосый закадровый) - «SDI Media»

Режиссер: Луи-Паскаль Кувлер

Описание: «Восточный экспресс» - символ несравненной роскоши, удовольствия и открытий, открыл новый путь между Западом и Востоком, от Парижа до Стамбула, через Венецию. Это самый знаменитый поезд в мире. Погрузитесь в тайны мифического поезда, который произвел революцию в искусстве путешествий, на перекрестке истории.
Какова его правдивая история? Что на самом деле скрывается за легендой?

Авторство релиза -: alf62


Тип релиза: HDTVRip
Контейнер: AVI

Видео: 720x400 (1.80:1), 25 fps, XviD build 73 ~1899 kbps avg, 0.26 bit/pixel
Аудио: 48 kHz, AC3 Dolby Digital, 2/0 (L,R) ch, ~192.00 kbps avg
Общее
Полное имя : D:\Запись\Поезд\В.поисках.Восточного.экспресса.2018.XviD.HDTVRip.alf62\01.В.поисках.Восточного.экспресса.2018.XviD.HDTVRip.alf62.avi
Формат : AVI
Формат/Информация : Audio Video Interleave
Размер файла : 662 Мбайт
Продолжительность : 44 м.
Общий поток : 2102 Кбит/сек
Программа кодирования : VirtualDubMod 1.5.10.3 | www.virtualdub-fr.org || (build 2550/release)
Библиотека кодирования : VirtualDubMod build 2550/release

Видео
Идентификатор : 0
Формат : MPEG-4 Visual
Профиль формата : Advanced [email protected]
Параметр BVOP формата : 2
Параметр QPel формата : Нет
Параметр GMC формата : Без точки перехода
Параметр матрицы формата : Default (MPEG)
Идентификатор кодека : XVID
Идентификатор кодека/Подсказка : XviD
Продолжительность : 44 м.
Битрейт : 1900 Кбит/сек
Ширина : 720 пикселей
Высота : 400 пикселей
Соотношение сторон : 16:9
Частота кадров : 25,000 кадров/сек
Цветовое пространство : YUV
Субдискретизация насыщенности : 4:2:0
Битовая глубина : 8 бит
Тип развёртки : Прогрессивная
Метод сжатия : С потерями
Бит/(Пиксели*Кадры) : 0.264
Размер потока : 599 Мбайт (90%)
Библиотека кодирования : XviD 73

Аудио
Идентификатор : 1
Формат : AC-3
Формат/Информация : Audio Coding 3
Расширение режима : CM (complete main)
Параметр Endianness формата : Big
Идентификатор кодека : 2000
Продолжительность : 44 м.
Вид битрейта : Постоянный
Битрейт : 192 Кбит/сек
Каналы : 2 канала
Расположение каналов : Front: L R
Частота : 48,0 КГц
Частота кадров : 31,250 кадров/сек (1536 spf)
Метод сжатия : С потерями
Размер потока : 60,5 Мбайт (9%)
Выравнивание : Разделение по промежуткам
Продолжительность промежутка : 40 мс. (1,00 видеокадр)
Время предзагрузки промежутка : 500 мс.
скриншот  скриншот  скриншот  
pb.wtf



Скачать В поисках «Восточного экспресса» через торрент http://i110.fastpic.ru/big/2019/0715/7a/86b335f00ac7da6142ff4e871c18c57a.jpg Скачать, смотреть онлайн В поисках «Восточного экспресса» бесплантно в хорошем качестве Описание: «Восточный экспресс» - символ несравненной роскоши, удовольствия и открытий, открыл новый путь между Западом и Востоком, от ... 10 10 1
Торрент: Зарегистрирован [2019-08-23 17:31] · скачан: 14 раз
Статус: √ проверено
Размер: 1.26 GB
Как cкачать? Как скачать В поисках «Восточного экспресса» через торрент | UTorrent

% Раздел Тема Автор DL S | L
Научно-популярные фильмы [ 2.51 GB ] В поисках «Восточного экспресса» / In search of the Orient-Express / Серии: 1-2 из 2 [2018 Документальный история расследование HDTVRip 720p] [VO] killermax2013 Скачать
1 | 0

28-11-2019 20:33  

Отключить вcю реклaмy на сайте

    Дорогой пользователь! Огромная просьба, поблагодарите релизера, оцените раздачу и оставьте свои комментарий, если Вы скачали В поисках «Восточного экспресса» через торрент бесплатно!
    Комментировать посты могут только пользователи прошедшие не сложную регистрацию
    Показать сообщения:    

    В поисках «Восточного экспресса» через торрент
    Скачать бесплатно В поисках «Восточного экспресса»
    В поисках «Восточного экспресса» скачать торрент
    В поисках «Восточного экспресса» смотреть онлайн
    Cкачать фильм В поисках «Восточного экспресса» бесплатно
    В поисках «Восточного экспресса» скачать торрент в хорошем качестве
    В поисках «Восточного экспресса» смотреть онлайн бесплатно в хорошем качестве


    Вы не можете начинать темы
    Вы не можете отвечать на сообщения
    Вы не можете редактировать свои сообщения
    Вы не можете удалять свои сообщения
    Вы не можете голосовать в опросах
    Вы не можете прикреплять файлы к сообщениям
    Вы можете скачивать файлы