Всегда рабочее зеркало без VPN и Proxy просто перед .vidak.icu напиши любое слово или цифру, Пример http://qccl.vidak.icu

MVO

MVO

1 сезон

1

1 сезон

iTunes

1 сезон

13

1 сезон

Deluxe

pack

Рекомендуем

Repack

30

ВАЖНО

RePack

MK11

RePack

jed

RePack

fifa19

RePack

RDR2

RePack

NEED FOR SPEED™ PAYBACK

Кинопоиск HD

6 сезон

 Острые козырьки 6 сезон

Все сериалы

все сериалы на PB.wtf

RePack

FAR CRY 5
  
Magnet ссылка

Гипердрайв / Hyperdrive / Сезон: 1 / Серии: 1-10 из 10 [2019, Автопередача, WEB-DL 1080p] MVO [RuFilms] pb.wtf

Гипердрайв через торрент pb.wtf

Размер: 28.56 GB | Добавлен: 2 года 11 мес. назад | Торрент скачан:4 раза
Смотреть онлайн Гипердрайв | Скачать    Ребята, помогите собрать деньги на оплату серверов!!!

24-08-2019 17:11 Гипердрайв Скачать торрент  

Гипердрайв Год выпуска: 2019
Страна: США
Жанр: Тв-Шоу
Продолжительность: 00:45:00
Перевод: Профессиональный (многоголосый закадровый) | RuFilms по заказу Netflix
Субтитры: Русские (Forced, Full), Английские (Forced, SDH)

Режиссёр: Патрик МакМанус

В ролях: Майкл Биспинг, Линдсэй Черняк, Рутледж Вуд, Стейси-Ли Мэй

Описание: Гонщики со всего мира соревнуются на одной из самых больших и опасных трасс. Участников шоу ждут высокооктановые приключения, перед которыми бледнеет даже "Джимхана" Кена Блока. Участникам гонки предстоит преодолевать настоящую полосу препятствий с самыми разнообразными и порой слегка сумасшедшими заданиями, которые потребуют от них в буквальном смысле стальной выдержки и карбоновой фантазии.



Качество: WEB-DL 1080p
Контейнер: MKV

Видео: H.264/AVC, 1920x1080p (1.78:1), 23.976 fps, ~7500 kbps, ~0.121 bit/pixel
Аудио №1: Русский E-AC3/DD+ 5.1, 48 kHz, 640 kbps
Аудио №2: Английский E-AC3/DD+ 5.1, 48 kHz, 640 kbps


Реклама: отсутствует
Общее
Уникальный идентификатор                 : 254050695336010584129043858557085726979 (0xBF206257EAABD890CCE61F0BD3D8B903)
Полное имя                               : F:\RELEASE\Hyperdrive.S01.1080p.WEB-DL.Rus.Eng.EniaHD\Hyperdrive.S01E01.1080p.WEB-DL.Rus.Eng.EniaHD.mkv
Формат                                   : Matroska
Версия формата                           : Version 4
Размер файла                             : 2,90 Гбайт
Продолжительность                        : 48 м. 9 с.
Режим общего битрейта                    : Переменный
Общий поток                              : 8630 Кбит/сек
Дата кодирования                         : UTC 2019-08-24 15:33:32
Программа кодирования                    : mkvmerge v36.0.0 ('Is That Jazz?') 64-bit
Библиотека кодирования                   : libebml v1.3.9 + libmatroska v1.5.2
Обложка                                  : Yes
Attachments                              : cover.jpg

Видео
Идентификатор                            : 1
Формат                                   : AVC
Формат/Информация                        : Advanced Video Codec
Профиль формата                          : [email protected]
Настройки формата                        : CABAC / 3 Ref Frames
Параметр CABAC формата                   : Да
Параметр RefFrames формата               : 3 кадра
Идентификатор кодека                     : V_MPEG4/ISO/AVC
Продолжительность                        : 48 м. 9 с.
Вид битрейта                             : Переменный
Битрейт                                  : 7500 Кбит/сек
Максимальный битрейт                     : 11,2 Мбит/сек
Ширина                                   : 1920 пикселей
Высота                                   : 1080 пикселей
Соотношение сторон                       : 16:9
Режим частоты кадров                     : Постоянный
Частота кадров                           : 29,970 (30000/1001) кадров/сек
Цветовое пространство                    : YUV
Субдискретизация насыщенности            : 4:2:0
Битовая глубина                          : 8 бит
Тип развёртки                            : Прогрессивная
Бит/(Пиксели*Кадры)                      : 0.121
Размер потока                            : 2,47 Гбайт (85%)
Заголовок                                : Release by Zgurvas for EniaHD
Библиотека кодирования                   : x264 core 148 r2715 7e75228
Настройки программы                      : cabac=1 / ref=3 / deblock=1:0:0 / analyse=0x1:0x111 / me=umh / subme=10 / psy=1 / psy_rd=1.00:0.00 / mixed_ref=1 / me_range=24 / chroma_me=1 / trellis=2 / 8x8dct=0 / cqm=0 / deadzone=21,11 / fast_pskip=1 / chroma_qp_offset=-2 / threads=6 / lookahead_threads=1 / sliced_threads=0 / nr=0 / decimate=1 / interlaced=0 / bluray_compat=0 / stitchable=1 / constrained_intra=0 / bframes=2 / b_pyramid=0 / b_adapt=2 / b_bias=0 / direct=3 / weightb=1 / open_gop=0 / weightp=2 / keyint=250 / keyint_min=25 / scenecut=0 / intra_refresh=0 / rc_lookahead=60 / rc=2pass / mbtree=1 / bitrate=7500 / ratetol=1.0 / qcomp=0.50 / qpmin=6 / qpmax=51 / qpstep=4 / cplxblur=20.0 / qblur=0.5 / vbv_maxrate=11250 / vbv_bufsize=15000 / nal_hrd=vbr / filler=0 / ip_ratio=1.40 / aq=1:1.00
Язык                                     : English
Default                                  : Да
Forced                                   : Нет

Аудио #1
Идентификатор                            : 2
Формат                                   : E-AC-3
Формат/Информация                        : Enhanced AC-3
Коммерческое название                    : Dolby Digital Plus
Идентификатор кодека                     : A_EAC3
Продолжительность                        : 48 м. 9 с.
Вид битрейта                             : Постоянный
Битрейт                                  : 640 Кбит/сек
Каналы                                   : 6 каналов
ChannelLayout                            : L R C LFE Ls Rs
Частота                                  : 48,0 КГц
Частота кадров                           : 31,250 кадров/сек (1536 SPF)
Метод сжатия                             : С потерями
Размер потока                            : 220 Мбайт (7%)
Заголовок                                : E-AC3 5.1 @ 640 kbps - MVO, RuFilms
Язык                                     : Russian
ServiceKind/String                       : Complete Main
Default                                  : Да
Forced                                   : Нет

Аудио #2
Идентификатор                            : 3
Формат                                   : E-AC-3
Формат/Информация                        : Enhanced AC-3
Коммерческое название                    : Dolby Digital Plus
Идентификатор кодека                     : A_EAC3
Продолжительность                        : 48 м. 9 с.
Вид битрейта                             : Постоянный
Битрейт                                  : 640 Кбит/сек
Каналы                                   : 6 каналов
ChannelLayout                            : L R C LFE Ls Rs
Частота                                  : 48,0 КГц
Частота кадров                           : 31,250 кадров/сек (1536 SPF)
Метод сжатия                             : С потерями
Размер потока                            : 220 Мбайт (7%)
Заголовок                                : E-AC3 5.1 @ 640 kbps - Original
Язык                                     : English
ServiceKind/String                       : Complete Main
Default                                  : Нет
Forced                                   : Нет

Текст #1
Идентификатор                            : 4
Формат                                   : UTF-8
Идентификатор кодека                     : S_TEXT/UTF8
Идентификатор кодека/Информация          : UTF-8 Plain Text
Продолжительность                        : 46 м. 50 с.
Битрейт                                  : 15 бит/сек
ElementCount                             : 117
Размер потока                            : 5,36 Кбайт (0%)
Заголовок                                : Forced
Язык                                     : Russian
Default                                  : Да
Forced                                   : Да

Текст #2
Идентификатор                            : 5
Формат                                   : UTF-8
Идентификатор кодека                     : S_TEXT/UTF8
Идентификатор кодека/Информация          : UTF-8 Plain Text
Продолжительность                        : 46 м. 50 с.
Битрейт                                  : 148 бит/сек
ElementCount                             : 902
Размер потока                            : 51,0 Кбайт (0%)
Заголовок                                : Full
Язык                                     : Russian
Default                                  : Нет
Forced                                   : Нет

Текст #3
Идентификатор                            : 6
Формат                                   : UTF-8
Идентификатор кодека                     : S_TEXT/UTF8
Идентификатор кодека/Информация          : UTF-8 Plain Text
Продолжительность                        : 44 м. 37 с.
Битрейт                                  : 6 бит/сек
ElementCount                             : 79
Размер потока                            : 2,12 Кбайт (0%)
Заголовок                                : Forced
Язык                                     : English
Default                                  : Нет
Forced                                   : Нет

Текст #4
Идентификатор                            : 7
Формат                                   : UTF-8
Идентификатор кодека                     : S_TEXT/UTF8
Идентификатор кодека/Информация          : UTF-8 Plain Text
Продолжительность                        : 46 м. 10 с.
Битрейт                                  : 111 бит/сек
ElementCount                             : 894
Размер потока                            : 37,6 Кбайт (0%)
Заголовок                                : Full SDH
Язык                                     : English
Default                                  : Нет
Forced                                   : Нет
pb.wtf



Скачать Гипердрайв через торрент https://funkyimg.com/i/2WsCD.png Скачать, смотреть онлайн Гипердрайв бесплантно в хорошем качестве Описание: Гонщики со всего мира соревнуются на одной из самых больших и опасных трасс. Участников шоу ждут высокооктановые приключения, ... 10 10 4
Торрент: Зарегистрирован [2019-08-24 17:11] · скачан: 4 раз
Статус: √ проверено
Размер: 28.56 GB
Как cкачать? Как скачать Гипердрайв через торрент | UTorrent

% Раздел Тема Автор DL S | L
Автоспорт [ 5.6 GB ] Гипердрайв / Hyperdrive / Сезон: 1 / Серии: 1-10 из 10 [2019 Автогонки WEB-DLRip] MVO [Jaskier] bober100 Скачать
1 | 0
Автоспорт [ 27.7 GB ] Гипердрайв / Hyperdrive / Сезон: 1 / Серии: 1-10 из 10 [2019 Автогонки WEB-DL 1080p] MVO [Jaskier] bober100 Скачать
1 | 0

28-11-2019 20:33  

Отключить вcю реклaмy на сайте

    Дорогой пользователь! Огромная просьба, поблагодарите релизера, оцените раздачу и оставьте свои комментарий, если Вы скачали Гипердрайв через торрент бесплатно!
    Комментировать посты могут только пользователи прошедшие не сложную регистрацию
    Показать сообщения:    

    Гипердрайв через торрент
    Скачать бесплатно Гипердрайв
    Гипердрайв скачать торрент
    Гипердрайв смотреть онлайн
    Cкачать фильм Гипердрайв бесплатно
    Гипердрайв скачать торрент в хорошем качестве
    Гипердрайв смотреть онлайн бесплатно в хорошем качестве


    Вы не можете начинать темы
    Вы не можете отвечать на сообщения
    Вы не можете редактировать свои сообщения
    Вы не можете удалять свои сообщения
    Вы не можете голосовать в опросах
    Вы не можете прикреплять файлы к сообщениям
    Вы можете скачивать файлы