Всегда рабочее зеркало без VPN и Proxy просто перед .vidak.icu напиши любое слово или цифру, Пример http://77wl.vidak.icu

MVO

MVO

1 сезон

1

1 сезон

iTunes

1 сезон

13

1 сезон

Deluxe

pack

Рекомендуем

Repack

30

ВАЖНО

RePack

MK11

RePack

jed

RePack

fifa19

RePack

RDR2

RePack

NEED FOR SPEED™ PAYBACK

Кинопоиск HD

6 сезон

 Острые козырьки 6 сезон

Все сериалы

все сериалы на PB.wtf

RePack

FAR CRY 5
  
Magnet ссылка

Гипердрайв / Hyperdrive / Сезон: 1 / Серии: 1-10 из 10 (Патрик МакМанус) [2019, Автогонки, WEB-DLRip] MVO [Jaskier] pb.wtf

Гипердрайв через торрент pb.wtf

Размер: 5.6 GB | Добавлен: 2 года 11 мес. назад | Торрент скачан:16 раз
Смотреть онлайн Гипердрайв | Скачать    Ребята, помогите собрать деньги на оплату серверов!!!

28-08-2019 18:24 Гипердрайв Скачать торрент  

Гипердрайв / Hyperdrive

Год выпуска: 2019
Страна: США
Жанр: Автогонки, тв-шоу
Продолжительность: ~ 00:45:00
Перевод: Профессиональный (многоголосый закадровый) | Jaskier
Субтитры: отсутствуют

Режиссёр: Патрик МакМанус

В ролях: Майкл Биспинг, Линдсэй Черняк, Рутледж Вуд, Стейси-Ли Мэй

Описание: Гонщики со всего мира соревнуются на одной из самых больших и опасных трасс. Участников шоу ждут высокооктановые приключения, перед которыми бледнеет даже "Джимхана" Кена Блока. Участникам гонки предстоит преодолевать настоящую полосу препятствий с самыми разнообразными и порой слегка сумасшедшими заданиями, которые потребуют от них в буквальном смысле стальной выдержки и карбоновой фантазии.

rating

Качество: WEB-DLRip
Формат: AVI

Видео: XviD, ~ 1400 kbps, 720x400, 29.970 fps
Аудио 1: MP3, 48,0 КГц, 2 ch, 128 kbps - RUS
Аудио 2: MP3, 48,0 КГц, 2 ch, 128 kbps - ENG


Реклама: БЕЗ РЕКЛАМЫ
Общее
Полное имя                               : V:\Hyperdrive. Season 1 (400p l Jaskier)\hyperdrive.s01e01.400p.Jaskier.avi
Формат                                   : AVI
Формат/Информация                        : Audio Video Interleave
Размер файла                             : 576 Мбайт
Продолжительность                        : 48 м.
Общий поток                              : 1673 Кбит/сек
Программа кодирования                    : VirtualDubMod 1.5.10.3 | www.virtualdub-fr.org || (build 2550/release)
Библиотека кодирования                   : VirtualDubMod build 2550/release

Видео
Идентификатор                            : 0
Формат                                   : MPEG-4 Visual
Профиль формата                          : Advanced [email protected]
Параметр BVOP формата                    : 2
Параметр QPel формата                    : Нет
Параметр GMC формата                     : Без точки перехода
Параметр матрицы формата                 : Выборочная
Идентификатор кодека                     : XVID
Идентификатор кодека/Подсказка           : XviD
Продолжительность                        : 48 м.
Битрейт                                  : 1399 Кбит/сек
Ширина                                   : 720 пикселей
Высота                                   : 400 пикселей
Соотношение сторон                       : 16:9
Частота кадров                           : 29,970 (29970/1000) кадров/сек
Цветовое пространство                    : YUV
Субдискретизация насыщенности            : 4:2:0
Битовая глубина                          : 8 бит
Тип развёртки                            : Прогрессивная
Метод сжатия                             : С потерями
Бит/(Пиксели*Кадры)                      : 0.162
Размер потока                            : 482 Мбайт (84%)
Библиотека кодирования                   : XviD 73

Аудио #1
Идентификатор                            : 1
Формат                                   : MPEG Audio
Версия формата                           : Version 1
Профиль формата                          : Layer 3
Режим                                    : Joint stereo
Расширение режима                        : MS Stereo
Идентификатор кодека                     : 55
Идентификатор кодека/Подсказка           : MP3
Продолжительность                        : 48 м.
Вид битрейта                             : Постоянный
Битрейт                                  : 128 Кбит/сек
Каналы                                   : 2 канала
Частота                                  : 48,0 КГц
Метод сжатия                             : С потерями
Размер потока                            : 44,1 Мбайт (8%)
Выравнивание                             : Соединение по промежуткам
Продолжительность промежутка             : 33  мс. (1,00 видеокадр)
Время предзагрузки промежутка            : 504  мс.

Аудио #2
Идентификатор                            : 2
Формат                                   : MPEG Audio
Версия формата                           : Version 1
Профиль формата                          : Layer 3
Режим                                    : Joint stereo
Расширение режима                        : MS Stereo
Идентификатор кодека                     : 55
Идентификатор кодека/Подсказка           : MP3
Продолжительность                        : 48 м.
Вид битрейта                             : Постоянный
Битрейт                                  : 128 Кбит/сек
Каналы                                   : 2 канала
Частота                                  : 48,0 КГц
Метод сжатия                             : С потерями
Размер потока                            : 44,1 Мбайт (8%)
Выравнивание                             : Соединение по промежуткам
Продолжительность промежутка             : 33  мс. (1,00 видеокадр)
Время предзагрузки промежутка            : 504  мс.
pb.wtf



Скачать Гипердрайв через торрент https://i90.fastpic.ru/big/2019/0828/26/3355eee6dc54ec72aabf099966d29226.jpg Скачать, смотреть онлайн Гипердрайв бесплантно в хорошем качестве Описание: Гонщики со всего мира соревнуются на одной из самых больших и опасных трасс. Участников шоу ждут высокооктановые приключения, ... 10 10 2
Торрент: Зарегистрирован [2019-08-28 18:24] · скачан: 16 раз
Статус: √ проверено
Размер: 5.6 GB
Как cкачать? Как скачать Гипердрайв через торрент | UTorrent

% Раздел Тема Автор DL S | L
Автоспорт [ 27.7 GB ] Гипердрайв / Hyperdrive / Сезон: 1 / Серии: 1-10 из 10 [2019 Автогонки WEB-DL 1080p] MVO [Jaskier] bober100 Скачать
1 | 0
Автоспорт [ 28.56 GB ] Гипердрайв / Hyperdrive / Сезон: 1 / Серии: 1-10 из 10 [2019 Автопередача WEB-DL 1080p] MVO [RuFilms] bober100 Скачать
1 | 0

28-11-2019 20:33  

Отключить вcю реклaмy на сайте

    Дорогой пользователь! Огромная просьба, поблагодарите релизера, оцените раздачу и оставьте свои комментарий, если Вы скачали Гипердрайв через торрент бесплатно!
    Комментировать посты могут только пользователи прошедшие не сложную регистрацию
    Показать сообщения:    

    Гипердрайв через торрент
    Скачать бесплатно Гипердрайв
    Гипердрайв скачать торрент
    Гипердрайв смотреть онлайн
    Cкачать фильм Гипердрайв бесплатно
    Гипердрайв скачать торрент в хорошем качестве
    Гипердрайв смотреть онлайн бесплатно в хорошем качестве


    Вы не можете начинать темы
    Вы не можете отвечать на сообщения
    Вы не можете редактировать свои сообщения
    Вы не можете удалять свои сообщения
    Вы не можете голосовать в опросах
    Вы не можете прикреплять файлы к сообщениям
    Вы можете скачивать файлы