Всегда рабочее зеркало без VPN и Proxy просто перед .vidak.icu напиши любое слово или цифру, Пример http://c0b4.vidak.icu

Лицензия

MVO

1 сезон

1

1 сезон

iTunes

1 сезон

13

1 сезон

Deluxe

pack

Рекомендуем

Repack

30

ВАЖНО

RePack

MK11

RePack

jed

RePack

fifa19

RePack

RDR2

RePack

NEED FOR SPEED™ PAYBACK

Кинопоиск HD

6 сезон

 Острые козырьки 6 сезон

Все сериалы

все сериалы на PB.wtf

RePack

FAR CRY 5
  
Magnet ссылка

Обитель страха / Ветер / The Wind (Эмма Тамми) [2018, Ужасы, вестерн, BD Remux 1080p] DUB [iTunes] pb.wtf

Обитель страха через торрент pb.wtf

Размер: 16.75 GB | Добавлен: 2 года 11 мес. назад | Торрент скачан:22 раза
Смотреть онлайн Обитель страха | Скачать    Ребята, помогите собрать деньги на оплату серверов!!!

09-09-2019 05:38 Обитель страха Скачать торрент  

Обитель страха / Ветер / The Wind
Год выпуска: 2018
Страна: США
Жанр: Ужасы, вестерн
Продолжительность: 01:27:58
Перевод: Дублированный | iTunes
Субтитры: Русские (Full), английские

Режиссер: Эмма Тамми

rating

В ролях: Майлз Андерсон, Кейтлин Джерард, Джулия Голден Теллес, Дилан МакТи, Мартин Си Паттерсон, Эшли Цукерман

Описание: Дикий Запад, конец XIX века. Где-то в бескрайних прериях живёт молодая пара. Муж часто отлучается на заработки в город и оставляет Лиззи одну, поэтому она очень обрадовалась, когда рядом поселилась ещё одна семейная пара. Теперь женщине есть с кем поговорить и провести время. Но забеременев, новая подруга начинает странно себя вести и утверждать, что где-то поблизости бродит нечто потустороннее.

Качество: BD Remux 1080p
Формат: MKV

Видео: MPEG-4 AVC, 1920x1080, 24.4 Mbit/s, 23.976 fps
Аудио#1: 48 kHz, AC3, 5.1, 384 Kbps | iTunes | RUS |
Аудио#2: 48 kHz, DTS-HD MA, 5.1, 2460 Kbps | Оригинал | ENG |
скриншот  скриншот  скриншот  скриншот  скриншот  

General
Unique ID : 328205032756597287931743792828353505644 (0xF6E9FD73D0BCA86696FAC6A0E38A696C)
Complete name : D:Video111The.Wind.2018.BDREMUX.1080p.seleZen.mkv
Format : Matroska
Format version : Version 4
File size : 16.8 GiB
Duration : 1 h 28 min
Overall bit rate mode : Variable
Overall bit rate : 27.2 Mb/s
Movie name : The Wind 2018 from селезень
Encoded date : UTC 2019-09-09 00:12:56
Writing application : mkvmerge v22.0.0 ('At The End Of The World') 64-bit
Writing library : libebml v1.3.5 + libmatroska v1.4.8

Video
ID : 1
Format : AVC
Format/Info : Advanced Video Codec
Format profile : [email protected]
Format settings : CABAC / 2 Ref Frames
Format settings, CABAC : Yes
Format settings, Reference : 2 frames
Format settings, GOP : M=1, N=5
Codec ID : V_MPEG4/ISO/AVC
Duration : 1 h 28 min
Bit rate mode : Variable
Bit rate : 24.4 Mb/s
Maximum bit rate : 36.1 Mb/s
Width : 1 920 pixels
Height : 1 080 pixels
Display aspect ratio : 16:9
Frame rate mode : Constant
Frame rate : 23.976 (24000/1001) FPS
Color space : YUV
Chroma subsampling : 4:2:0
Bit depth : 8 bits
Scan type : Progressive
Bits/(Pixel*Frame) : 0.490
Stream size : 15.0 GiB (90%)
Language : English
Default : Yes
Forced : No

Audio #1
ID : 2
Format : AC-3
Format/Info : Audio Coding 3
Commercial name : Dolby Digital
Codec ID : A_AC3
Duration : 1 h 28 min
Bit rate mode : Constant
Bit rate : 384 kb/s
Channel(s) : 6 channels
Channel layout : L R C LFE Ls Rs
Sampling rate : 48.0 kHz
Frame rate : 31.250 FPS (1536 SPF)
Bit depth : 16 bits
Compression mode : Lossy
Stream size : 242 MiB (1%)
Title : iTunes
Language : Russian
Service kind : Complete Main
Default : Yes
Forced : Yes

Audio #2
ID : 3
Format : DTS XLL
Format/Info : Digital Theater Systems
Commercial name : DTS-HD Master Audio
Codec ID : A_DTS
Duration : 1 h 28 min
Bit rate mode : Variable
Bit rate : 2 460 kb/s
Channel(s) : 6 channels
Channel layout : C L R Ls Rs LFE
Sampling rate : 48.0 kHz
Frame rate : 93.750 FPS (512 SPF)
Bit depth : 24 bits
Compression mode : Lossless
Stream size : 1.51 GiB (9%)
Title : Original
Language : English
Default : No
Forced : No

Text #1
ID : 4
Format : UTF-8
Codec ID : S_TEXT/UTF8
Codec ID/Info : UTF-8 Plain Text
Duration : 1 h 19 min
Bit rate : 31 b/s
Count of elements : 411
Stream size : 18.2 KiB (0%)
Title : Full
Language : Russian
Default : No
Forced : No

Text #2
ID : 5
Format : UTF-8
Codec ID : S_TEXT/UTF8
Codec ID/Info : UTF-8 Plain Text
Duration : 1 h 16 min
Bit rate : 19 b/s
Count of elements : 444
Stream size : 10.8 KiB (0%)
Title : Full
Language : English
Default : No
Forced : No

Text #3
ID : 6
Format : UTF-8
Codec ID : S_TEXT/UTF8
Codec ID/Info : UTF-8 Plain Text
Duration : 1 h 27 min
Bit rate : 22 b/s
Count of elements : 669
Stream size : 14.1 KiB (0%)
Title : SDH
Language : English
Default : No
Forced : No

Menu
00:00:00.000 : en:Chapter 1
00:06:00.276 : en:Chapter 2
00:14:10.974 : en:Chapter 3
00:22:41.609 : en:Chapter 4
00:29:46.450 : en:Chapter 5
00:34:52.673 : en:Chapter 6
00:39:31.868 : en:Chapter 7
00:49:07.402 : en:Chapter 8
00:55:58.396 : en:Chapter 9
01:02:06.013 : en:Chapter 10
01:09:49.726 : en:Chapter 11
01:16:58.029 : en:Chapter 12

pb.wtf



Скачать Обитель страха через торрент http://img15.lostpic.net/2019/07/10/fe7afe984789082bb996485a3824700d.jpg Скачать, смотреть онлайн Обитель страха бесплантно в хорошем качестве Описание: Дикий Запад, конец XIX века. Где-то в бескрайних прериях живёт молодая пара. Муж часто отлучается на заработки в город и ... 10 10 3
Торрент: Зарегистрирован [2019-09-09 05:38] · скачан: 22 раз
Статус: √ проверено
Размер: 16.75 GB
Как cкачать? Как скачать Обитель страха через торрент | UTorrent

% Раздел Тема Автор DL S | L
Фильмы 2018 [DVDrip, WEB-DLRip, HDrip] (DUB, MVO) [ 1.63 GB ] Обитель страха / Ветер / The Wind [2018 BDRip-AVC] bober100 Скачать
1 | 0
Фильмы 2018 [DVDrip, WEB-DLRip, HDrip] (DUB, MVO) [ 1.42 GB ] Обитель страха / Ветер / The Wind [2018 BDRip] - Twi7ter Скачать
1 | 0
Фильмы [HD 720p, 1080p] (Хороший звук DUB, MVO) [ 4.56 GB ] Обитель страха / Ветер / The Wind [2018 BDRip 720p] bober100 Скачать
1 | 0
Фильмы [HD 720p, 1080p] (Хороший звук DUB, MVO) [ 7.02 GB ] Обитель страха / Ветер / The Wind [2018 BDRip 1080p] bober100 Скачать
1 | 0
Фильмы 2018 [DVDrip, WEB-DLRip, HDrip] (DUB, MVO) [ 1.48 GB ] Обитель страха / Ветер / The Wind [2018 WEB-DLRip-AVC] +MVO [HDRezka Studio] bober100 Скачать
1 | 0
Фильмы 2018 [DVDrip, WEB-DLRip, HDrip] (DUB, MVO) [ 1.46 GB ] Обитель страха / Ветер / The Wind [2018 WEB-DLRip] bober100 Скачать
1 | 0
Фильмы (WEB-DL 720p, 1080p) [ 3.97 GB ] Обитель страха / Ветер / The Wind [2018 WEB-DL 1080p] +MVO [HDRezka Studio] bober100 Скачать
1 | 0

28-11-2019 20:33  

Отключить вcю реклaмy на сайте

    Дорогой пользователь! Огромная просьба, поблагодарите релизера, оцените раздачу и оставьте свои комментарий, если Вы скачали Обитель страха через торрент бесплатно!
    Комментировать посты могут только пользователи прошедшие не сложную регистрацию
    Показать сообщения:    

    Обитель страха через торрент
    Скачать бесплатно Обитель страха
    Обитель страха скачать торрент
    Обитель страха смотреть онлайн
    Cкачать фильм Обитель страха бесплатно
    Обитель страха скачать торрент в хорошем качестве
    Обитель страха смотреть онлайн бесплатно в хорошем качестве


    Вы не можете начинать темы
    Вы не можете отвечать на сообщения
    Вы не можете редактировать свои сообщения
    Вы не можете удалять свои сообщения
    Вы не можете голосовать в опросах
    Вы не можете прикреплять файлы к сообщениям
    Вы можете скачивать файлы