новый адрес пиратбит piratbit
Мега распродажа FORZA HORIZON 4 ULTIMATE+ВСЕ DLC+ОНЛАЙН всего за 499р. 349 руб. (супер цена). Внимание количество ограничено!!!

iTunes

1+1

iTunes

мы

iTunes

1

iTunes

Чернобыль

iTunes

Ральф против интернета

Лицензия

ПШазам

Лицензия

Игра престолов

Лицензия

30
pack

ВАЖНО

!!Акция!!

Alien_RageХит недели

RePack

Resident Evil 21

ИГРА 18+

pack

RePack

Metro:Exodus

!!Акция!!

Alien_Rage

RePack

fifa19

RePack

Assassins Creed: Odyssey

RePack

NEED FOR SPEED™ PAYBACK

3 сезон

9 сезон

Бесстыжие 9 сезон

Все сериалы

все сериалы на PB.wtf

RePack

FAR CRY 5
Ребята, катастрофически не хватает 1900р. для оплаты серверов за Октябрь (всвязи с блокировками трафик упал в 3 раза), 1-2р., выручайте.
  

Джози / Josie (Эрик Инглэнд) [2018, Триллер, драма, BDRip-AVC] MVO [HDrezka Studio] pb.wtf

Джози через торрент pb.wtf

Раздают: 1 [ 5 KB/s ]
Размер: 1.54 GB | Добавлен: 1 мес. 29 д. назад | Торрент скачан:92 раза
Скачать  

14-09-2019 09:46 Джози Скачать торрент  

Джози / Josie«You can't hide from your past when revenge comes knocking»
Год выпуска: 2018
Страна: США
Жанр: Триллер, драма
Продолжительность: 01:27:22
Перевод: Профессиональный (многоголосый) | HDrezka Studio
Субтитры: Английские (полные, SDH)

Режиссер: Эрик Инглэнд

rating

В ролях: Софи Тёрнер, Дилан МакДермотт, Дег Ферч, Джек Килмер, Курт Фуллер, Робин Бартлетт, Ломбардо Бойяр, Джордж Тодд МакЛахлан, Мика Фицджералд, Мики Ферч

Описание: Бывший тюремщик Хэнк, некогда работавший в камере смертников, устраивается охранником на школьную парковку в тихом городке. Его однообразная затворническая жизнь неожиданно меняется после появления новенькой старшеклассницы, с которой у Хэнка завязываются неоднозначные отношения.

Качество: BDRip-AVC
Формат: MKV

Видео: 1024x436 (2.35:1), 23,976 fps, x264 ~1 876 kbps avg, 0.175 bit/pixel
Аудио#1: 48 kHz, AC3 Dolby Digital, 2/0 (L,R) ch, ~192.00 kbps avg | RUS (HDRezka Studio)
Аудио#2: 48 kHz, AC3 Dolby Digital, 3/2 (L,C,R,l,r) + LFE ch, ~448.00 kbps avg | ENG
скриншот  скриншот  скриншот  скриншот  скриншот  

Общее
Уникальный идентификатор : 63304165973910177080330749466570189603 (0x2F9FF05ACA818D51BE6AC1D1C270EB23)
Полное имя : D:Josie.2018.BDRip(AVC).OlLanDGroup.mkv
Формат : Matroska
Версия формата : Version 4 / Version 2
Размер файла : 1,54 Гбайт
Продолжительность : 1 ч. 27 м.
Общий поток : 2517 Кбит/сек
Название фильма : Josie.2018 #TorpedoUK#
Дата кодирования : UTC 2019-04-11 19:19:16
Программа кодирования : mkvmerge v29.0.0 ('Like It Or Not') 64-bit
Библиотека кодирования : libebml v1.3.6 + libmatroska v1.4.9

Видео
Идентификатор : 1
Формат : AVC
Формат/Информация : Advanced Video Codec
Профиль формата : High@L4.1
Параметр CABAC формата : Да
Параметр ReFrames формата : 10 кадров
Идентификатор кодека : V_MPEG4/ISO/AVC
Продолжительность : 1 ч. 27 м.
Битрейт : 1876 Кбит/сек
Ширина : 1024 пикселя
Высота : 436 пикселей
Соотношение сторон : 2,35:1
Режим частоты кадров : Постоянный
Частота кадров : 23,976 (24000/1001) кадра/сек
Цветовое пространство : YUV
Субдискретизация насыщенности : 4:2:0
Битовая глубина : 8 бит
Тип развёртки : Прогрессивная
Бит/(Пиксели*Кадры) : 0.175
Размер потока : 1,14 Гбайт (74%)
Библиотека кодирования : x264 core 146 r2538 121396c
Настройки программы : cabac=1 / ref=10 / deblock=1:-3:-3 / analyse=0x3:0x113 / me=umh / subme=11 / psy=1 / psy_rd=0.99:0.04 / mixed_ref=1 / me_range=48 / chroma_me=1 / trellis=2 / 8x8dct=1 / cqm=0 / deadzone=21,11 / fast_pskip=1 / chroma_qp_offset=-3 / threads=6 / lookahead_threads=1 / sliced_threads=0 / nr=0 / decimate=1 / interlaced=0 / bluray_compat=0 / constrained_intra=0 / bframes=11 / b_pyramid=2 / b_adapt=2 / b_bias=0 / direct=3 / weightb=1 / open_gop=0 / weightp=2 / keyint=240 / keyint_min=23 / scenecut=40 / intra_refresh=0 / rc_lookahead=40 / rc=2pass / mbtree=0 / bitrate=1876 / ratetol=1.0 / qcomp=0.60 / qpmin=0 / qpmax=69 / qpstep=4 / cplxblur=20.0 / qblur=0.5 / vbv_maxrate=50000 / vbv_bufsize=62500 / nal_hrd=none / filler=0 / ip_ratio=1.40 / pb_ratio=1.30 / aq=1:1.00
Язык : English
Default : Да
Forced : Нет

Аудио #1
Идентификатор : 2
Формат : AC-3
Формат/Информация : Audio Coding 3
Расширение режима : CM (complete main)
Параметр Endianness формата : Big
Идентификатор кодека : A_AC3
Продолжительность : 1 ч. 27 м.
Вид битрейта : Постоянный
Битрейт : 192 Кбит/сек
Каналы : 2 канала
Расположение каналов : Front: L R
Частота : 48,0 КГц
Частота кадров : 31,250 кадров/сек (1536 spf)
Битовая глубина : 16 бит
Метод сжатия : С потерями
Размер потока : 120 Мбайт (8%)
Заголовок : MVO [HDRezka Studio]
Язык : Russian
Default : Да
Forced : Нет

Аудио #2
Идентификатор : 3
Формат : AC-3
Формат/Информация : Audio Coding 3
Расширение режима : CM (complete main)
Параметр Endianness формата : Big
Идентификатор кодека : A_AC3
Продолжительность : 1 ч. 27 м.
Вид битрейта : Постоянный
Битрейт : 448 Кбит/сек
Каналы : 6 каналов
Расположение каналов : Front: L C R, Side: L R, LFE
Частота : 48,0 КГц
Частота кадров : 31,250 кадров/сек (1536 spf)
Битовая глубина : 16 бит
Метод сжатия : С потерями
Размер потока : 280 Мбайт (18%)
Заголовок : [Original]
Язык : English
Default : Нет
Forced : Нет

Текст #1
Идентификатор : 4
Формат : UTF-8
Идентификатор кодека : S_TEXT/UTF8
Идентификатор кодека/Информация : UTF-8 Plain Text
Продолжительность : 1 ч. 22 м.
Битрейт : 49 бит/сек
Count of elements : 1098
Размер потока : 29,8 Кбайт (0%)
Заголовок : Full
Язык : English
Default : Нет
Forced : Нет

Текст #2
Идентификатор : 5
Формат : UTF-8
Идентификатор кодека : S_TEXT/UTF8
Идентификатор кодека/Информация : UTF-8 Plain Text
Продолжительность : 1 ч. 26 м.
Битрейт : 52 бит/сек
Count of elements : 1234
Размер потока : 33,2 Кбайт (0%)
Заголовок : SDH
Язык : English
Default : Нет
Forced : Нет

Меню
00:00:00.000 : en:Chapter 01
00:04:20.218 : en:Chapter 02
00:11:17.009 : en:Chapter 03
00:17:33.761 : en:Chapter 04
00:21:06.390 : en:Chapter 05
00:31:35.059 : en:Chapter 06
00:38:02.488 : en:Chapter 07
00:46:46.470 : en:Chapter 08
00:53:33.168 : en:Chapter 09
01:05:01.981 : en:Chapter 10
01:10:25.095 : en:Chapter 11
01:22:22.479 : en:Chapter 12

pb.wtf



Скачать Джози через торрент https://i90.fastpic.ru/big/2019/0914/59/9f0dce4fad9af0ba9f9f2a7cdc41c059.jpg Скачать фильм Джози через торрент бесплантно в хорошем качестве Описание: Бывший тюремщик Хэнк, некогда работавший в камере смертников, устраивается охранником на школьную парковку в тихом городке. Его ... 10 10 7
Торрент: Зарегистрирован [2019-09-14 09:46] · скачан: 92 раз
Статус: T временная
Размер: 1.54 GB
Как cкачать? Как скачать Джози через торрент | qTorrent

% Раздел Тема Автор DL S | L
T Фильмы [HD 720p, 1080p] (Хороший звук DUB, MVO) [ 4.51 GB ] Джози / Josie [2018 BDRip 720p] MVO [HDrezka Studio] bober100 Скачать
1 | 0
T Фильмы 2018 [DVDrip, WEB-DLRip, HDrip] (DUB, MVO) [ 1.46 GB ] Джози / Josie [2018 BDRip] MVO [HDrezka Studio] bober100 Скачать
2 | 0
T Фильмы (WEB-DL 720p, 1080p) [ 3.28 GB ] Джози / Josie [2017 WEB-DL 1080p] [MVO] killermax2013 Скачать
1 | 0
Фильмы 2001-2005 [ 1.45 GB ] Джози и кошечки / Josie and the Pussycats [2001 музыка HDTVRip-AVC] MVO stalonе Скачать
1 | 0


>> Регистрируемся здесь <<






Отзывы и комментарии о схеме читаем и пишем здесь: ---> Отзывы и комментарии о схеме

Новые благодарочки в телеграм довольных пользователей:
скриншот   скриншот   скриншот   скриншот   скриншот
    Дорогой пользователь! Огромная просьба, поблагодарите релизера, оцените раздачу и оставьте свои комментарий, если Вы скачали Джози через торрент бесплатно! Внесите свою лепту в развитие PiratBit!
    Комментировать посты могут только пользователи прошедшие не сложную регистрацию
    Показать сообщения:    

    Джози через торрент
    Скачать бесплатно Джози
    Джози скачать торрент
    Джози смотреть онлайн
    Cкачать фильм Джози бесплатно
    Джози скачать торрент в хорошем качестве
    Джози смотреть онлайн бесплатно в хорошем качестве


    Вы не можете начинать темы
    Вы не можете отвечать на сообщения
    Вы не можете редактировать свои сообщения
    Вы не можете удалять свои сообщения
    Вы не можете голосовать в опросах
    Вы не можете прикреплять файлы к сообщениям
    Вы можете скачивать файлы