новый адрес пиратбит piratbit
Мега распродажа FORZA HORIZON 4 ULTIMATE+ВСЕ DLC+ОНЛАЙН всего за 499р. 349 руб. (супер цена). Внимание количество ограничено!!!

iTunes

1+1

iTunes

мы

iTunes

1

iTunes

Чернобыль

iTunes

Ральф против интернета

Лицензия

ПШазам

Лицензия

Игра престолов

Лицензия

30
pack

ВАЖНО

!!Акция!!

Alien_RageХит недели

RePack

Resident Evil 21

ИГРА 18+

pack

RePack

Metro:Exodus

!!Акция!!

Alien_Rage

RePack

fifa19

RePack

Assassins Creed: Odyssey

RePack

NEED FOR SPEED™ PAYBACK

3 сезон

9 сезон

Бесстыжие 9 сезон

Все сериалы

все сериалы на PB.wtf

RePack

FAR CRY 5
Ребята, катастрофически не хватает 1900р. для оплаты серверов за Октябрь (всвязи с блокировками трафик упал в 3 раза), 1-2р., выручайте.
  

Каракоз / Qarakoz / Karakoz (Роман Сидоренко, Максим Якобчук) [2018 г., Ужасы, SATRip] - ExKinoRay pb.wtf

Каракоз через торрент pb.wtf

Раздают: 1 [ 0 KB/s ]
Размер: 744 MB | Добавлен: 2 мес. назад | Торрент скачан:75 раз
Скачать  

13-09-2019 15:58 Каракоз Скачать торрент  

Каракоз
Qarakoz / Karakoz
Год выпуска: 2018
Страна: Казахстан, Украина
Жанр: Ужасы
Продолжительность: 01:20:30
Перевод: Не требуется Русский
Субтитры: Отсутствуют

Режиссер: Роман Сидоренко, Максим Якобчук

Премьера в мире: 1 ноября 2018

rating

В ролях: Бибигуль Суюншалина, Али Окапов, Алдияр Байракимов, Дарья Александрова, Салтанат Науруз, Айдос Рысхан, Азамат Абдильдинов

Описание: Из древних поверий о потусторонней нечисти казахского края будут воссозданы страшнейшие из легенд фольклора. Пересказанные вновь, они вольются в реалии наших дней...

Качество: SATRip
Формат: AVI
Видео кодек: XviD
Аудио кодек: MP3
Видео: 640x336 (1.90:1), 25 fps, XviD build 73 ~1155 kbps avg, 0.21 bit/pixel
Аудио#1: 48 kHz, MPEG Layer 3, 2 ch, ~128.00 kbps avg
Релиз от: &
General
Complete name : D:\Каракоз (2018).SATRip by ExKinoRay & Shkiper.avi
Format : AVI
Format/Info : Audio Video Interleave
File size : 744 MiB
Duration : 1 h 20 min
Overall bit rate : 1 293 kb/s
Writing application : VirtualDubMod 1.5.10.3 | www.virtualdub-fr.org || (build 2550/release)
Writing library : VirtualDubMod build 2550/release

Video
ID : 0
Format : MPEG-4 Visual
Format profile : Advanced Simple@L5
Format settings : BVOP1 / Custom Matrix
Format settings, BVOP : 1
Format settings, QPel : No
Format settings, GMC : No warppoints
Format settings, Matrix : Custom
Codec ID : XVID
Codec ID/Hint : XviD
Duration : 1 h 20 min
Bit rate : 1 155 kb/s
Width : 640 pixels
Height : 336 pixels
Display aspect ratio : 1.905
Frame rate : 25.000 FPS
Color space : YUV
Chroma subsampling : 4:2:0
Bit depth : 8 bits
Scan type : Progressive
Compression mode : Lossy
Bits/(Pixel*Frame) : 0.215
Stream size : 665 MiB (89%)
Writing library : XviD 73

Audio
ID : 1
Format : MPEG Audio
Format version : Version 1
Format profile : Layer 3
Codec ID : 55
Codec ID/Hint : MP3
Duration : 1 h 20 min
Bit rate mode : Constant
Bit rate : 128 kb/s
Channel(s) : 2 channels
Sampling rate : 48.0 kHz
Frame rate : 41.667 FPS (1152 SPF)
Compression mode : Lossy
Stream size : 73.7 MiB (10%)
Alignment : Aligned on interleaves
Interleave, duration : 40 ms (1.00 video frame)
Interleave, preload duratio : 504 ms
Writing library : LAME3.99r
Encoding settings : -m s -V 4 -q 2 -lowpass 17 -b 128

pb.wtf



Скачать Каракоз через торрент https://img15.lostpic.net/2019/09/13/e75a1b7047ae1a2dbb0c1b7e4e67c42e.jpg Скачать фильм Каракоз через торрент бесплантно в хорошем качестве Описание: Из древних поверий о потусторонней нечисти казахского края будут воссозданы страшнейшие из легенд фольклора. Пересказанные вновь, ... 8.2 10 5
Торрент: Зарегистрирован [2019-09-13 15:58] · скачан: 75 раз
Статус: √ проверено
Размер: 744 MB
Как cкачать? Как скачать Каракоз через торрент | qTorrent


>> Регистрируемся здесь <<






Отзывы и комментарии о схеме читаем и пишем здесь: ---> Отзывы и комментарии о схеме

Новые благодарочки в телеграм довольных пользователей:
скриншот   скриншот   скриншот   скриншот   скриншот

13-09-2019 16:46 Каракоз Скачать торрент  

pb.wtf



13-09-2019 19:31 Каракоз Скачать торрент  

Казахстан, Украина - Ужасы. Это прикол такой ? pb.wtf



14-09-2019 10:07 Каракоз Скачать торрент  

Только начал смотреть. Оказывается древний казахский фольклор имеет непосредственное отношение к сотовой связи. Продвинутые старинные легенды напоминают о временах, когда на границе Казахстана и прекрасной, далекой Франции кочевали славяно-тюркские племена. Ладно, это уже от себя добавил. Короче, мне уже интересно, что дальше.Если что - отпишусь.pb.wtf



14-09-2019 11:12 Каракоз Скачать торрент  

Неожиданно. Очень. Низкий бюджет. Забавная жуть в течении фильма. Оконцовка уже не смешная. Это не фольклор. Это криминал.pb.wtf



    Дорогой пользователь! Огромная просьба, поблагодарите релизера, оцените раздачу и оставьте свои комментарий, если Вы скачали Каракоз через торрент бесплатно! Внесите свою лепту в развитие PiratBit!
    Комментировать посты могут только пользователи прошедшие не сложную регистрацию
    Показать сообщения:    

    Каракоз через торрент
    Скачать бесплатно Каракоз
    Каракоз скачать торрент
    Каракоз смотреть онлайн
    Cкачать фильм Каракоз бесплатно
    Каракоз скачать торрент в хорошем качестве
    Каракоз смотреть онлайн бесплатно в хорошем качестве


    Вы не можете начинать темы
    Вы не можете отвечать на сообщения
    Вы не можете редактировать свои сообщения
    Вы не можете удалять свои сообщения
    Вы не можете голосовать в опросах
    Вы не можете прикреплять файлы к сообщениям
    Вы можете скачивать файлы