новый адрес пиратбит piratbit
Мега распродажа FORZA HORIZON 4 ULTIMATE+ВСЕ DLC+ОНЛАЙН всего за 499р. 349 руб. (супер цена). Внимание количество ограничено!!!

iTunes

1+1

iTunes

мы

iTunes

1

iTunes

Чернобыль

iTunes

Ральф против интернета

Лицензия

ПШазам

Лицензия

Игра престолов

Лицензия

30
pack

ВАЖНО

!!Акция!!

Alien_RageХит недели

RePack

Resident Evil 21

ИГРА 18+

pack

RePack

Metro:Exodus

!!Акция!!

Alien_Rage

RePack

fifa19

RePack

Assassins Creed: Odyssey

RePack

NEED FOR SPEED™ PAYBACK

3 сезон

9 сезон

Бесстыжие 9 сезон

Все сериалы

все сериалы на PB.wtf

RePack

FAR CRY 5
Ребята, катастрофически не хватает 1900р. для оплаты серверов за Октябрь (всвязи с блокировками трафик упал в 3 раза), 1-2р., выручайте.
  

Реинкарнация / Hereditary (Ари Астер) [2018, ужасы, триллер, драма, детектив, HDRip-AVC] DUB [Лицензия] pb.wtf

Реинкарнация через торрент pb.wtf

Раздают: 6 [ 0 KB/s ]
Размер: 1.46 GB | Добавлен: 8 мес. назад | Торрент скачан:1155 раз
Скачать  

12-03-2019 18:45 Реинкарнация Скачать торрент  

Реинкарнация / Hereditary«У каждой родословной есть свои тайны»
Год выпуска: 2018
Страна: США
Жанр: ужасы, триллер, драма, детектив
Продолжительность: 02:07:26
Перевод: Дублированный | Лицензия
Субтитры: Русские (полные), Английские (полные)

Режиссер: Ари Астер

rating

В ролях:

Алекс Вулф, Гэбриел Бирн, Тони Коллетт, Милли Шапиро, Кристи Саммерхэйс, Морган Ланд, Мэллори Бехтель, Джейк Браун, Харрисон Нелл, Брианн Рейчел

Описание:

После смерти матери Энни Грэхем в её ранее спокойном доме начинает твориться нечто необъяснимое. Теперь под угрозой жизнь её близких. С каждым днём открываются новые ужасающие секреты их семьи. Энни осознаёт, что эти кошмары берут своё начало в далёком прошлом. Сможет ли она найти ключ к тайне зловещего проклятия, которое передаётся из поколения в поколение...

Качество: HDRip-AVC
Формат: MKV

Видео: 720x360 (2:1), 23,976 fps, x264 ~1 191 kbps avg, 0.192 bit/pixel
Аудио: 48 kHz, AC3 Dolby Digital, 3/2 (L,C,R,l,r) + LFE ch, ~448.00 kbps avg | RUS (Лицензия)
скриншот  скриншот  скриншот  скриншот  скриншот  

Общее
Уникальный идентификатор : 120838890672717258737614986195864876937 (0x5AE8B94AE9669AC25E22435A836F7789)
Полное имя : F:OlLanDGroupHereditary.2018.HDRip(AVC).OlLanDGroup.mkv
Формат : Matroska
Версия формата : Version 4 / Version 2
Размер файла : 1,46 Гбайт
Продолжительность : 2 ч. 7 м.
Общий поток : 1641 Кбит/сек
Название фильма : Hereditary.2018 #TorpedoUK#
Дата кодирования : UTC 2019-03-12 14:05:18
Программа кодирования : mkvmerge v29.0.0 ('Like It Or Not') 64-bit
Библиотека кодирования : libebml v1.3.6 + libmatroska v1.4.9

Видео
Идентификатор : 1
Формат : AVC
Формат/Информация : Advanced Video Codec
Профиль формата : High@L4.1
Параметр CABAC формата : Да
Параметр ReFrames формата : 10 кадров
Идентификатор кодека : V_MPEG4/ISO/AVC
Продолжительность : 2 ч. 7 м.
Битрейт : 1191 Кбит/сек
Ширина : 720 пикселей
Высота : 360 пикселей
Соотношение сторон : 2,000
Режим частоты кадров : Постоянный
Частота кадров : 23,976 (24000/1001) кадра/сек
Цветовое пространство : YUV
Субдискретизация насыщенности : 4:2:0
Битовая глубина : 8 бит
Тип развёртки : Прогрессивная
Бит/(Пиксели*Кадры) : 0.192
Размер потока : 1,06 Гбайт (73%)
Библиотека кодирования : x264 core 146 r2538 121396c
Настройки программы : cabac=1 / ref=10 / deblock=1:-3:-3 / analyse=0x3:0x113 / me=umh / subme=11 / psy=1 / psy_rd=0.97:0.07 / mixed_ref=1 / me_range=48 / chroma_me=1 / trellis=2 / 8x8dct=1 / cqm=0 / deadzone=21,11 / fast_pskip=1 / chroma_qp_offset=-3 / threads=6 / lookahead_threads=1 / sliced_threads=0 / nr=0 / decimate=1 / interlaced=0 / bluray_compat=0 / constrained_intra=0 / bframes=10 / b_pyramid=2 / b_adapt=2 / b_bias=0 / direct=3 / weightb=1 / open_gop=0 / weightp=2 / keyint=240 / keyint_min=23 / scenecut=40 / intra_refresh=0 / rc_lookahead=40 / rc=2pass / mbtree=1 / bitrate=1191 / ratetol=1.0 / qcomp=0.60 / qpmin=0 / qpmax=69 / qpstep=4 / cplxblur=20.0 / qblur=0.5 / vbv_maxrate=50000 / vbv_bufsize=62500 / nal_hrd=none / filler=0 / ip_ratio=1.40 / aq=1:1.00
Default : Да
Forced : Нет

Аудио
Идентификатор : 2
Формат : AC-3
Формат/Информация : Audio Coding 3
Расширение режима : CM (complete main)
Параметр Endianness формата : Big
Идентификатор кодека : A_AC3
Продолжительность : 2 ч. 7 м.
Вид битрейта : Постоянный
Битрейт : 448 Кбит/сек
Каналы : 6 каналов
Расположение каналов : Front: L C R, Side: L R, LFE
Частота : 48,0 КГц
Частота кадров : 31,250 кадров/сек (1536 spf)
Битовая глубина : 16 бит
Метод сжатия : С потерями
Размер потока : 408 Мбайт (27%)
Заголовок : DUB [License]
Язык : Russian
Default : Да
Forced : Нет

Текст #1
Идентификатор : 3
Формат : UTF-8
Идентификатор кодека : S_TEXT/UTF8
Идентификатор кодека/Информация : UTF-8 Plain Text
Продолжительность : 2 ч. 0 м.
Битрейт : 56 бит/сек
Count of elements : 1015
Размер потока : 50,0 Кбайт (0%)
Заголовок : Full
Язык : Russian
Default : Нет
Forced : Нет

Текст #2
Идентификатор : 4
Формат : UTF-8
Идентификатор кодека : S_TEXT/UTF8
Идентификатор кодека/Информация : UTF-8 Plain Text
Продолжительность : 2 ч. 0 м.
Битрейт : 33 бит/сек
Count of elements : 1014
Размер потока : 29,4 Кбайт (0%)
Заголовок : Full
Язык : English
Default : Нет
Forced : Нет

Меню
00:00:00.000 : en:00:00:00.000
00:06:03.321 : en:00:06:03.321
00:13:34.147 : en:00:13:34.147
00:23:01.130 : en:00:23:01.130
00:26:31.173 : en:00:26:31.173
00:34:57.762 : en:00:34:57.762
00:40:56.496 : en:00:40:56.496
00:47:23.090 : en:00:47:23.090
00:54:34.396 : en:00:54:34.396
01:04:02.881 : en:01:04:02.881
01:08:55.631 : en:01:08:55.631
01:19:35.854 : en:01:19:35.854
01:25:09.396 : en:01:25:09.396
01:32:50.315 : en:01:32:50.315
01:40:01.412 : en:01:40:01.412
01:53:21.378 : en:01:53:21.378

pb.wtf



Скачать Реинкарнация через торрент http://img11.lostpic.net/2018/08/30/9d5cf949ee3accbf0bb606c7bf421bbc.jpg Скачать фильм Реинкарнация через торрент бесплантно в хорошем качестве Описание: После смерти матери Энни Грэхем в её ранее спокойном доме начинает твориться нечто необъяснимое. Теперь под угрозой жизнь её ... 9.1 10 21
Info! Золотая раздача, скачанное не засчитывается.
Торрент: Зарегистрирован [2019-03-12 18:45] · скачан: 1 155 раз
Статус: √ проверено
Размер: 1.46 GB
Как cкачать? Как скачать Реинкарнация через торрент | qTorrent

% Раздел Тема Автор DL S | L
Ultra HD (UHD: 2K, 4K, 8K) — видео сверхвысокой чёткости [ 67.14 GB ] Реинкарнация / Hereditary [2018 UHD BDRemux 2160p] [Dolby Vision TV] DUB [] bober100 Скачать
1 | 0
Ultra HD (UHD: 2K, 4K, 8K) — видео сверхвысокой чёткости [ 67.98 GB ] Реинкарнация / Hereditary [2018 UHD BDRemux 2160p] DUB [] + AVO [С. Визгунов] sheker187 Скачать
1 | 0
Ultra HD (UHD: 2K, 4K, 8K) — видео сверхвысокой чёткости [ 66.59 GB ] Реинкарнация / Hereditary [2018 UHD BDRemux 2160p] DUB [] bober100 Скачать
1 | 0
Фильмы 2018 [DVDrip, WEB-DLRip, HDrip] (DUB, MVO) [ 1.46 GB ] Реинкарнация / Hereditary [2018 BDRip] - [] Twi7ter Скачать
1 | 0
Фильмы 2018 [DVDrip, WEB-DLRip, HDrip] (DUB, MVO) [ 2.18 GB ] Реинкарнация / Hereditary [2018 BDRip] - [] Twi7ter Скачать
1 | 0
Ultra HD (UHD: 2K, 4K, 8K) — видео сверхвысокой чёткости [ 79.49 GB ] Реинкарнация / Hereditary [2018 UHD Blu-Ray 2160p] [HDR + Dolby Vision] sheker187 Скачать
1 | 0
Ultra HD (UHD: 2K, 4K, 8K) — видео сверхвысокой чёткости [ 19.77 GB ] Реинкарнация / Hereditary [2018 UHD BDRip 2160p] DUB [ R5] bober100 Скачать
1 | 0


>> Регистрируемся здесь <<






Отзывы и комментарии о схеме читаем и пишем здесь: ---> Отзывы и комментарии о схеме

Новые благодарочки в телеграм довольных пользователей:
скриншот   скриншот   скриншот   скриншот   скриншот

13-03-2019 14:30 Реинкарнация Скачать торрент  

Мерзкий и бессмысленный фильм. Зря потраченное время на просмотр.pb.wtf



14-03-2019 16:10 Реинкарнация Скачать торрент  

Рикардо писал(а):

Мерзкий и бессмысленный фильм. Зря потраченное время на просмотр.

pb.wtf



14-03-2019 21:16 Реинкарнация Скачать торрент  

Тупой и конченный фильм,ни о чем--- не знаю за что кинокритики на кинопоиске ставят 10.... не тратьте время так как после 20 минуты просто будете смотреть с перемотками.Нет логики и нет смысла.pb.wtf



16-03-2019 14:49 Реинкарнация Скачать торрент  

Редкостное Г...pb.wtf



17-03-2019 15:58 Реинкарнация Скачать торрент  

НА РАЗОК МОЖНО ГЛЯНУТЬpb.wtf



21-03-2019 13:02 Реинкарнация Скачать торрент  

Для своего жанра фильм отличный!Не слушайте дилетантов, которые удивляются положительным оценкам критиков.pb.wtf



21-03-2019 18:12 Реинкарнация Скачать торрент  

Ayer писал(а):

Тупой и конченный фильм,ни о чем--- не знаю за что кинокритики на кинопоиске ставят 10.... не тратьте время так как после 20 минуты просто будете смотреть с перемотками.Нет логики и нет смысла.

у тебя и секс такой же с перемоткамиpb.wtf



31-03-2019 11:10 Реинкарнация Скачать торрент  

vadimman писал(а):

Ayer писал(а):

Тупой и конченный фильм,ни о чем--- не знаю за что кинокритики на кинопоиске ставят 10.... не тратьте время так как после 20 минуты просто будете смотреть с перемотками.Нет логики и нет смысла.

у тебя и секс такой же с перемотками

Ты типа остроумный киноман такой тут нарисовался? про свой секс нам тут не рассказывай давай. Человек своё мнение высказал, куда ты свои пять копеек суешь? (хотя я предполагаю куда )pb.wtf



15-09-2019 08:26 Реинкарнация Скачать торрент  

фильм очень крутой, про шайтанаpb.wtf



    Дорогой пользователь! Огромная просьба, поблагодарите релизера, оцените раздачу и оставьте свои комментарий, если Вы скачали Реинкарнация через торрент бесплатно! Внесите свою лепту в развитие PiratBit!
    Комментировать посты могут только пользователи прошедшие не сложную регистрацию
    Показать сообщения:    

    Реинкарнация через торрент
    Скачать бесплатно Реинкарнация
    Реинкарнация скачать торрент
    Реинкарнация смотреть онлайн
    Cкачать фильм Реинкарнация бесплатно
    Реинкарнация скачать торрент в хорошем качестве
    Реинкарнация смотреть онлайн бесплатно в хорошем качестве


    Вы не можете начинать темы
    Вы не можете отвечать на сообщения
    Вы не можете редактировать свои сообщения
    Вы не можете удалять свои сообщения
    Вы не можете голосовать в опросах
    Вы не можете прикреплять файлы к сообщениям
    Вы можете скачивать файлы