новый адрес
Ссылка на приватное зеркало всего за 1$. Внимание количество ограничено!!!

iTunes

1+1

iTunes

мы

iTunes

1

iTunes

Чернобыль

iTunes

Ральф против интернета

Лицензия

ПШазам

Лицензия

Оно 2

Лицензия

30
pack

Вам бонус

ВАЖНО

!!Акция!!

Alien_RageХит недели

RePack

Resident Evil 21

ИГРА 18+

pack

RePack

jed

!!Акция!!

Alien_Rage

RePack

fifa19

RePack

Assassins Creed: Odyssey

RePack

NEED FOR SPEED™ PAYBACK

3 сезон

9 сезон

Бесстыжие 9 сезон

Все сериалы

все сериалы на PB.wtf

RePack

FAR CRY 5
Ребята, катастрофически не хватает 1900р. для оплаты серверов за Октябрь (всвязи с блокировками трафик упал в 3 раза), 1-2р., выручайте.
  

Красивый бандит / A Clever Crook / Un beau voyou (Лукас Бернард) [2018, Комедия, WEB-DLRip-AVC] DUB [iTunes] pb.wtf

Красивый бандит через торрент pb.wtf

Раздают: 2 [ 0 KB/s ]
Размер: 1.73 GB | Добавлен: 2 мес. 5 д. назад | Торрент скачан:96 раз
Скачать  

17-09-2019 04:50 Красивый бандит Скачать торрент  

Красивый бандит / A Clever Crook / Un beau voyou
Год выпуска: 2018
Страна: Франция
Жанр: Комедия
Продолжительность: 01:44:23
Перевод: Дублированный | iTunes
Субтитры: отсутствуют

Режиссер: Лукас Бернард

rating

В ролях: Шарль Берлинг, Сванн Арло, Дженнифер Декер, Жан-Кентен Шатлен, Эрик Деор, Энн Лорье, Кристиан Бенедетти, Пьер Осседат, Марина Монкаде, Виктор Понтекорво

Описание: Накануне давно ожидаемого выхода на пенсию незадачливый комиссар полиции сталкивается с дерзким похищением картины. Элегантность совершенного преступления вынуждает его начать расследование.

Качество: WEB-DLRip-AVC
Формат: MKV

Видео: 1024x540 (1.89:1), 24,000 fps, x264 ~1 985 kbps avg, 0.150 bit/pixel
Аудио: 48 kHz, AC3 Dolby Digital, 3/2 (L,C,R,l,r) + LFE ch, ~384.00 kbps avg | RUS (iTunes)
скриншот  скриншот  скриншот  скриншот  

Общее
Уникальный идентификатор : 95692805410880201119844552983208086415 (0x47FDC39197D190DEC6BEE44D89394B8F)
Полное имя : F:OlLanDGroupA.Clever.Crook.2018.WEB-DLRip(AVC).OllanDGroup.mkv
Формат : Matroska
Версия формата : Version 4 / Version 2
Размер файла : 1,73 Гбайт
Продолжительность : 1 ч. 44 м.
Общий поток : 2369 Кбит/сек
Название фильма : A.Clever.Crook.2018 #TorpedoUK#
Дата кодирования : UTC 2019-09-16 07:48:52
Программа кодирования : mkvmerge v29.0.0 ('Like It Or Not') 64-bit
Библиотека кодирования : libebml v1.3.6 + libmatroska v1.4.9

Видео
Идентификатор : 1
Формат : AVC
Формат/Информация : Advanced Video Codec
Профиль формата : High@L4.1
Параметр CABAC формата : Да
Параметр ReFrames формата : 10 кадров
Идентификатор кодека : V_MPEG4/ISO/AVC
Продолжительность : 1 ч. 44 м.
Битрейт : 1985 Кбит/сек
Ширина : 1024 пикселя
Высота : 540 пикселей
Соотношение сторон : 1,896
Режим частоты кадров : Постоянный
Частота кадров : 24,000 кадра/сек
Цветовое пространство : YUV
Субдискретизация насыщенности : 4:2:0
Битовая глубина : 8 бит
Тип развёртки : Прогрессивная
Бит/(Пиксели*Кадры) : 0.150
Размер потока : 1,45 Гбайт (84%)
Библиотека кодирования : x264 core 146 r2538 121396c
Настройки программы : cabac=1 / ref=10 / deblock=1:-2:-3 / analyse=0x3:0x113 / me=umh / subme=10 / psy=1 / psy_rd=0.95:0.07 / mixed_ref=1 / me_range=48 / chroma_me=1 / trellis=2 / 8x8dct=1 / cqm=0 / deadzone=21,11 / fast_pskip=1 / chroma_qp_offset=-6 / threads=6 / lookahead_threads=1 / sliced_threads=0 / nr=0 / decimate=1 / interlaced=0 / bluray_compat=0 / constrained_intra=0 / bframes=11 / b_pyramid=2 / b_adapt=2 / b_bias=0 / direct=3 / weightb=1 / open_gop=0 / weightp=2 / keyint=240 / keyint_min=24 / scenecut=40 / intra_refresh=0 / rc_lookahead=40 / rc=2pass / mbtree=0 / bitrate=1985 / ratetol=1.0 / qcomp=0.60 / qpmin=0 / qpmax=69 / qpstep=4 / cplxblur=20.0 / qblur=0.5 / vbv_maxrate=50000 / vbv_bufsize=62500 / nal_hrd=none / filler=0 / ip_ratio=1.40 / pb_ratio=1.30 / aq=1:1.00
Язык : English
Default : Да
Forced : Нет

Аудио
Идентификатор : 2
Формат : AC-3
Формат/Информация : Audio Coding 3
Расширение режима : CM (complete main)
Параметр Endianness формата : Big
Идентификатор кодека : A_AC3
Продолжительность : 1 ч. 44 м.
Вид битрейта : Постоянный
Битрейт : 384 Кбит/сек
Каналы : 6 каналов
Расположение каналов : Front: L C R, Side: L R, LFE
Частота : 48,0 КГц
Частота кадров : 31,250 кадров/сек (1536 spf)
Битовая глубина : 16 бит
Метод сжатия : С потерями
Размер потока : 287 Мбайт (16%)
Заголовок : [DUB] DD 5.1 @ 384 kbps (iTunes)
Язык : Russian
Default : Да
Forced : Нет

Меню
00:00:00.000 : en:Глава 1
00:08:23.375 : en:Глава 2
00:16:23.250 : en:Глава 3
00:24:54.250 : en:Глава 4
00:32:55.625 : en:Глава 5
00:41:18.916 : en:Глава 6
00:49:44.624 : en:Глава 7
00:58:02.665 : en:Глава 8
01:06:04.248 : en:Глава 9
01:14:16.456 : en:Глава 10
01:22:35.039 : en:Глава 11
01:31:15.289 : en:Глава 12
01:37:33.039 : en:Глава 13

pb.wtf



Скачать Красивый бандит через торрент https://a.radikal.ru/a41/1909/81/aeeee962b6bb.png Скачать фильм Красивый бандит через торрент бесплантно в хорошем качестве Описание: Накануне давно ожидаемого выхода на пенсию незадачливый комиссар полиции сталкивается с дерзким похищением картины. Элегантность ... 10 10 4
Торрент: Зарегистрирован [2019-09-17 04:50] · скачан: 96 раз
Статус: √ проверено
Размер: 1.73 GB
Как cкачать? Как скачать Красивый бандит через торрент | qTorrent

% Раздел Тема Автор DL S | L
Фильмы (WEB-DL 720p, 1080p) [ 4.11 GB ] Красивый бандит / A Clever Crook / Un beau voyou [2018 WEB-DL 1080p] bober100 Скачать
3 | 0
Фильмы 2018 [DVDrip, WEB-DLRip, HDrip] (DUB, MVO) [ 1.46 GB ] Красивый бандит / A Clever Crook / Un beau voyou [2018 WEB-DLRip] bober100 Скачать
5 | 0


>> Переходим по ссылке <<
Автоматически подгузится скрипт который настроит ваш браузер на выигрыш!!
После настройки браузера вероятность выигрыша увеличется в 4.1-4,6 раза.
В течение 6 секунд вам откроется настроенный интерфейс казино, с повышенной вероятностью выигрыша.






Отзывы и комментарии о схеме читаем и пишем здесь: ---> Отзывы и комментарии о схеме

Новые благодарочки в телеграм довольных пользователей:
скриншот   скриншот   скриншот   скриншот   скриншот
    Дорогой пользователь! Огромная просьба, поблагодарите релизера, оцените раздачу и оставьте свои комментарий, если Вы скачали Красивый бандит через торрент бесплатно! Внесите свою лепту в развитие PiratBit!
    Комментировать посты могут только пользователи прошедшие не сложную регистрацию
    Показать сообщения:    

    Красивый бандит через торрент
    Скачать бесплатно Красивый бандит
    Красивый бандит скачать торрент
    Красивый бандит смотреть онлайн
    Cкачать фильм Красивый бандит бесплатно
    Красивый бандит скачать торрент в хорошем качестве
    Красивый бандит смотреть онлайн бесплатно в хорошем качестве


    Вы не можете начинать темы
    Вы не можете отвечать на сообщения
    Вы не можете редактировать свои сообщения
    Вы не можете удалять свои сообщения
    Вы не можете голосовать в опросах
    Вы не можете прикреплять файлы к сообщениям
    Вы можете скачивать файлы