Ссылка на приватное зеркало всего за 1$. Внимание количество ограничено!!!

OK

1+1

iTunes

мы

OK

1

WEB-DLRip

Джокер

Пифагор

Ведьмак / The Witcher сериал

Лицензия

ПШазам

ОК

Оно 2

iTunes

30
pack

Вам бонус

ВАЖНО

!!Акция!!

Alien_RageХит недели

RePack

Resident Evil 21

ИГРА 18+

pack

RePack

jed

RePack

fifa19

RePack

Assassins Creed: Odyssey

RePack

NEED FOR SPEED™ PAYBACK

4 сезон

9 сезон

Бесстыжие 9 сезон

Все сериалы

все сериалы на PB.wtf

RePack

FAR CRY 5
  

Ватерлоо / Waterloo (Сергей Бондарчук) [1970 г., боевик, драма, военный, история, BDRip-AVC] MVO, AVO, VO - ExKinoRay pb.wtf

Ватерлоо через торрент pb.wtf

Раздают: 3 [ 0 KB/s ]
Размер: 3.79 GB | Добавлен: 4 мес. 3 д. назад | Торрент скачан:57 раз
Скачать  

20-09-2019 11:45 Ватерлоо Скачать торрент  

Название: Ватерлоо
Оригинальное название: Waterloo
Год выпуска: 1970
Жанр: Исторический, военный, биография, драма
Выпущено: Италия, СССР, Dino de Laurentis Cinematografica S.p.A, Мосфильм, Columbia Pictures Paramount
Режиссер: Сергей Бондарчук ст.
В ролях: Род Стайгер, Кристофер Пламмер, Орсон Уэллс, Джек Хокинс, Вирджиния МакКенна, Дан О'Херлихи, Руперт Дэвис, Филипп Форке, Джанни Гарко, Иво Гаррани, Иэн Огилви, Майкл Уайлдинг, Серго Закариадзе, Теренс Александер, Андреа Кекки, Донал Доннелли, Шарль Милло, Евгений Самойлов, Олег Видов, Чарльз Борромел, Питер Дейвис, Вероника де Лаурентис, Владимир Дружников, Уиллоби Грей, Роджер Грин, Орсо Мария Гуэррини, Ричард Хеффер, Орацио Орландо, Джон Сэвидент, Джеффри Викхэм, Сьюзэн Вуд, Геннадий Юдин, Василий Ливанов, Харий Лиепиньш, Игорь Ясулович, Ирина Скобцева

О фильме: Потрясающий фильм с грандиозными батальными сценами рассказывает о событиях 1814-1815 годов, и последующее за ними взятие русской армии французской столицы. Сюжет начинается с отречения Наполеона, его ссылки на остров Эльба. Спустя время Наполеон, тайком покидает остров, и направляется на юг Франции. После благополучного возвращения в Париж, Наполеон вновь занимает место главнокомандующего французской армии и собирается противостоять коалиции России, Англии и Пруссии. В начале апреля 1815 года трехсоттысячная русская армия под командованием фельдмаршала Барклая де Толли выступила к границам Франции. Воспоминания о разгроме в России не оставляют французских солдат и в Ватерлоо 18 июня 1815 года, в последней, сокрушительной и бессмысленной битве. Потерпевшие поражение французы потеряли 31 тысячу человек, союзники — 21 тысячу. Победителей не было... Лучший батальный фильм синематографа, шедевр военно-исторического кино.

rating

Продолжительность: 02:13:54
Перевод: Профессиональный многоголосый, профессиональный одноголосый, авторский
Субтитры: Русские, английские

Формат: MKV
Качество: BDRip-AVC
Видео: MPEG-4 AVC, 1024x436 (2.40:1), 23.976 fps, 3022 Kbps, 0.282 bit/pixel
Audio #1: Русский (AC3, 2 ch, 192 Кбит/с) - MVO "Мосфильм"
Audio #2: Русский (AC3, 2 ch, 192 Кбит/с) - VO Сергей Бондарчук (советский прокатный вариант)
Audio #3: Русский (AC3, 2 ch, 192 Кбит/с) - AVO Юрий Живов
Audio #4: Английский (AC3, 6 ch, 448 Кбит/с) - Оригинал
General
Unique ID : 195599362723518765446240036383981966908 (0x932711256B6E19978B2ACCC52AC2163C)
Complete name : F:\Waterloo.1970.BDRip.AVC.ExKinoRay.mkv
Format : Matroska
Format version : Version 2
File size : 3.79 GiB
Duration : 2 h 13 min
Overall bit rate : 4 048 kb/s
Movie name : Waterloo 1970 from ExKinoRay
Encoded date : UTC 2019-09-20 08:50:23
Writing application : mkvmerge v5.6.0 ('Kenya Kane') built on May 27 2012 16:44:04
Writing library : libebml v1.2.3 + libmatroska v1.3.0
Cover : Yes
Attachments : cover.jpg

Video
ID : 1
Format : AVC
Format/Info : Advanced Video Codec
Format profile : High@L4.1
Format settings, CABAC : Yes
Format settings, ReFrames : 12 frames
Codec ID : V_MPEG4/ISO/AVC
Duration : 2 h 13 min
Bit rate : 3 022 kb/s
Width : 1 024 pixels
Height : 436 pixels
Display aspect ratio : 2.35:1
Frame rate mode : Constant
Frame rate : 23.976 (23976/1000) FPS
Color space : YUV
Chroma subsampling : 4:2:0
Bit depth : 8 bits
Scan type : Progressive
Bits/(Pixel*Frame) : 0.282
Stream size : 2.75 GiB (73%)
Title : Enigma
Writing library : x264 core 152 r2851 ba24899
Encoding settings : cabac=1 / ref=12 / deblock=1:-2:-2 / analyse=0x3:0x113 / me=umh / subme=10 / psy=1 / psy_rd=0.98:0.05 / mixed_ref=1 / me_range=32 / chroma_me=1 / trellis=2 / 8x8dct=1 / cqm=0 / deadzone=21,11 / fast_pskip=0 / chroma_qp_offset=-3 / threads=12 / lookahead_threads=3 / sliced_threads=0 / nr=0 / decimate=0 / interlaced=0 / bluray_compat=0 / constrained_intra=0 / bframes=10 / b_pyramid=2 / b_adapt=2 / b_bias=0 / direct=3 / weightb=1 / open_gop=0 / weightp=2 / keyint=240 / keyint_min=23 / scenecut=40 / intra_refresh=0 / rc=2pass / mbtree=0 / bitrate=3022 / ratetol=1.0 / qcomp=0.60 / qpmin=0 / qpmax=51 / qpstep=4 / cplxblur=20.0 / qblur=0.5 / ip_ratio=1.40 / pb_ratio=1.30 / aq=2:0.80
Language : English
Default : Yes
Forced : No
Color range : Limited
Color primaries : BT.709
Transfer characteristics : BT.709
Matrix coefficients : BT.709

Audio #1
ID : 2
Format : AC-3
Format/Info : Audio Coding 3
Mode extension : CM (complete main)
Format settings, Endianness : Big
Codec ID : A_AC3
Duration : 2 h 13 min
Bit rate mode : Constant
Bit rate : 192 kb/s
Channel(s) : 2 channels
Channel positions : Front: L R
Sampling rate : 48.0 kHz
Frame rate : 31.250 FPS (1536 spf)
Compression mode : Lossy
Stream size : 184 MiB (5%)
Title : MVO (Mosfilm)
Language : Russian
Default : Yes
Forced : No

Audio #2
ID : 3
Format : AC-3
Format/Info : Audio Coding 3
Mode extension : CM (complete main)
Format settings, Endianness : Big
Codec ID : A_AC3
Duration : 2 h 13 min
Bit rate mode : Constant
Bit rate : 192 kb/s
Channel(s) : 2 channels
Channel positions : Front: L R
Sampling rate : 48.0 kHz
Frame rate : 31.250 FPS (1536 spf)
Compression mode : Lossy
Stream size : 184 MiB (5%)
Title : AVO (Givov)
Language : Russian
Default : No
Forced : No

Audio #3
ID : 4
Format : AC-3
Format/Info : Audio Coding 3
Mode extension : CM (complete main)
Format settings, Endianness : Big
Codec ID : A_AC3
Duration : 2 h 13 min
Bit rate mode : Constant
Bit rate : 192 kb/s
Channel(s) : 2 channels
Channel positions : Front: L R
Sampling rate : 48.0 kHz
Frame rate : 31.250 FPS (1536 spf)
Compression mode : Lossy
Stream size : 184 MiB (5%)
Title : VO (Bodnarchuk)
Language : Russian
Default : No
Forced : No

Audio #4
ID : 5
Format : AC-3
Format/Info : Audio Coding 3
Mode extension : CM (complete main)
Format settings, Endianness : Big
Codec ID : A_AC3
Duration : 2 h 13 min
Bit rate mode : Constant
Bit rate : 448 kb/s
Channel(s) : 6 channels
Channel positions : Front: L C R, Side: L R, LFE
Sampling rate : 48.0 kHz
Frame rate : 31.250 FPS (1536 spf)
Compression mode : Lossy
Stream size : 429 MiB (11%)
Language : English
Default : No
Forced : No

Text #1
ID : 6
Format : UTF-8
Codec ID : S_TEXT/UTF8
Codec ID/Info : UTF-8 Plain Text
Title : Full
Language : Russian
Default : No
Forced : No

Text #2
ID : 7
Format : UTF-8
Codec ID : S_TEXT/UTF8
Codec ID/Info : UTF-8 Plain Text
Language : English
Default : No
Forced : No

Menu
00:00:00.000 : en:Chapter 01
00:12:45.055 : en:Chapter 02
00:27:18.678 : en:Chapter 03
00:35:41.639 : en:Chapter 04
00:48:38.832 : en:Chapter 05
01:05:30.051 : en:Chapter 06
01:18:54.813 : en:Chapter 07
01:29:54.597 : en:Chapter 08
01:50:53.980 : en:Chapter 09
02:03:58.264 : en:Chapter 10




Релиз от:

Автор релиза: pb.wtf



Скачать Ватерлоо через торрент http://d.radikal.ru/d01/1909/8a/1df755a1abaa.png Скачать фильм Ватерлоо через торрент бесплантно в хорошем качестве О фильме: Потрясающий фильм с грандиозными батальными сценами рассказывает о событиях 1814-1815 годов, и последующее за ними взятие русской ... 9.8 10 4
Info! Золотая раздача, скачанное не засчитывается.
Торрент: Зарегистрирован [2019-09-20 11:45] · скачан: 57 раз
Статус: √ проверено
Размер: 3.79 GB
Как cкачать? Как скачать Ватерлоо через торрент | qTorrent

28-11-2019 20:33  

Отключить всю рекламу на сайте


20-09-2019 19:37 Ватерлоо Скачать торрент  

Спасибо,смотрел раньше,отличный фильм)pb.wtf



21-09-2019 11:06 Ватерлоо Скачать торрент  

Отличный фильм!pb.wtf



    Дорогой пользователь! Огромная просьба, поблагодарите релизера, оцените раздачу и оставьте свои комментарий, если Вы скачали Ватерлоо через торрент бесплатно! Внесите свою лепту в развитие PiratBit!
    Комментировать посты могут только пользователи прошедшие не сложную регистрацию
    Показать сообщения:    

    Ватерлоо через торрент
    Скачать бесплатно Ватерлоо
    Ватерлоо скачать торрент
    Ватерлоо смотреть онлайн
    Cкачать фильм Ватерлоо бесплатно
    Ватерлоо скачать торрент в хорошем качестве
    Ватерлоо смотреть онлайн бесплатно в хорошем качестве


    Вы не можете начинать темы
    Вы не можете отвечать на сообщения
    Вы не можете редактировать свои сообщения
    Вы не можете удалять свои сообщения
    Вы не можете голосовать в опросах
    Вы не можете прикреплять файлы к сообщениям
    Вы можете скачивать файлы