Ссылка на приватное зеркало нашего сайта всего за 1$. Внимание количество ограничено!!!

2 сезон

iTunes

1 сезон

1

2 сезон

2 сезон

iTunes

1 сезон

RePack

30

Ultimate

ВАЖНО

ИГРА 18+

pack

RePack

MK11
pack

Забери бонус

RePack

jed

!!Акция!!

Alien_Rage

RePack

fifa19

RePack

Assassins Creed: Odyssey

RePack

NEED FOR SPEED™ PAYBACK

4 сезон

9 сезон

Бесстыжие 9 сезон

Все сериалы

все сериалы на PB.wtf

RePack

FAR CRY 5
  

Знахарь / Сезон: 1 / Серии: 1-16 из 16 (Ярослав Мочалов) [2019, Мелодрама, SATRip] pb.wtf

Знахарь через торрент pb.wtf

Размер: 9.38 GB | Добавлен: 1 год 1 мес. назад | Торрент скачан:92 раза
Скачать  

23-09-2019 16:02 Знахарь Скачать торрент  

Знахарь
Год выпуска: 2019
Страна: Россия
Жанр: Мелодрама
Продолжительность: ~ 00:51:00
Субтитры: отсутствуют

Режиссер: Ярослав Мочалов



В ролях: Даниил Страхов, Екатерина Кузнецова (II), Николай Иванов (II), Александра Мареева, Леонид Громов, Юрий Ицков, Валерий Гришко, Павел Чинарёв, Светлана Смирнова-Марцинкевич, Андрей Ташков, Владимир Матвеев, Сергей Колос, Юлия Марченко, Алла Еминцева, Хельга Филиппова, Анна Дулова, Максим Ханжов, Артём Карасёв, Александр Кононец, Мария Жиганова, Екатерина Суворова

Описание: Молодой и талантливый нейрохирург Павел Андреев возвращается в Петербург после учебы за границей и устраивается работать в отделение больницы, начальник которого — его бывший учитель. Не все в больнице рады внезапному появлению Павла — его главным конкурентом становится бывший однокурсник Сергей Стрельников. Вне работы жизнь главного героя также непростая: его начальник Николай Семенов просит его провести сложную операцию и удалить запущенную опухоль, а параллельно у молодого врача начинается роман с дочерью Семенова. Всю жизнь Андреева переворачивает несчастный случай, в результате которого он теряет память, но не способность помогать людям.

Качество: SATRip
Формат: AVI

Видео: XviD, ~ 1450 Кбит/с, 720x400
Аудио: MP3, 2 ch, 192 Кбит/с
скриншот  скриншот  скриншот  скриншот  скриншот  

General
Complete name : Downloads\Znahar.2019.XviD.SATRip.25Kuzmich\Znahar.e01.XviD.SATRip.25Kuzmich.avi
Format : AVI
Format/Info : Audio Video Interleave
File size : 600 MiB
Duration : 50mn 37s
Overall bit rate : 1 657 Kbps
Writing application : VirtualDubMod 1.5.10.3 | www.virtualdub-fr.org || (build 2550/release)
Writing library : VirtualDubMod build 2550/release
Video #0
ID : 0
Format : MPEG-4 Visual
Format profile : Advanced Simple@L5
Format settings, BVOP : 1
Format settings, QPel : No
Format settings, GMC : No warppoints
Format settings, Matrix : Default (MPEG)
Codec ID : XVID
Codec ID/Hint : XviD
Duration : 50mn 37s
Bit rate : 1 456 Kbps
Width : 720 pixels
Height : 400 pixels
Display aspect ratio : 16:9
Frame rate : 25.000 fps
Color space : YUV
Chroma subsampling : 4:2:0
Bit depth : 8 bits
Scan type : Progressive
Compression mode : Lossy
Bits/(Pixel*Frame) : 0.202
Stream size : 527 MiB (88%)
Writing library : XviD 73
Audio #1
ID : 1
Format : MPEG Audio
Format version : Version 1
Format profile : Layer 3
Mode : Joint stereo
Codec ID : 55
Codec ID/Hint : MP3
Duration : 50mn 37s
Bit rate mode : Constant
Bit rate : 192 Kbps
Channel(s) : 2 channels
Sampling rate : 48.0 KHz
Compression mode : Lossy
Stream size : 69.5 MiB (12%)
Alignment : Aligned on interleaves
Interleave, duration : 40 ms (1.00 video frame)
Interleave, preload duration : 504 ms
Writing library : LAME3.99r
Encoding settings : -m j -V 4 -q 2 -lowpass 18.6 -b 192

При каждом добавлении создаётся новый торрент. Чтобы начать докачку новой серии, пользователям необходимо сделать следующее:
- остановить скачивание;
- удалить старый торрент у себя из клиента (старые серии удалять не надо);
- скачать новый торрент и запустить его у себя в клиенте вместо старого, при этом указать клиенту путь в старую папку, куда и должно происходить скачивание новых серий.
pb.wtf



Скачать Знахарь через торрент http://i86.fastpic.ru/big/2019/0923/99/f57a8cebbd9c280c253647b296a74099.jpg Скачать фильм Знахарь через торрент бесплантно в хорошем качестве Описание: Молодой и талантливый нейрохирург Павел Андреев возвращается в Петербург после учебы за границей и устраивается работать в ... 10 10 4
Торрент: Зарегистрирован [2019-10-03 15:11] · скачан: 92 раз
Статус: √ проверено
Размер: 9.38 GB
Как cкачать? Как скачать Знахарь через торрент | qTorrent

% Раздел Тема Автор DL S | L
Наши сериалы [ 20.78 GB ] Знахарь / Сезон: 1 / Серии: 1-16 из 16 [2019 Мело HDTVRip 720p] bober100 Скачать
2 | 0
Зарубежные сериалы [ 12.34 GB ] Знахарь / Сезон: 1 / Серии: 1-16 из 16 [2019 Мело HDTVRip-AVC] bober100 Скачать
1 | 0
Наши сериалы [ 10.01 GB ] Знахарь / Сезон: 1 / Серии: 1-16 из 16 [2019 Мело HDTVRip] bober100 Скачать
1 | 0
Наши сериалы [ 36.2 GB ] Знахарь / Сезон: 1 / Серии: 1-16 из 16 [2019 Мело HDTV 1080i] bober100 Скачать
1 | 0

28-11-2019 20:33  

Отключить всю рекламу на сайте

    Дорогой пользователь! Огромная просьба, поблагодарите релизера, оцените раздачу и оставьте свои комментарий, если Вы скачали Знахарь через торрент бесплатно! Внесите свою лепту в развитие PiratBit!
    Комментировать посты могут только пользователи прошедшие не сложную регистрацию
    Показать сообщения:    

    Знахарь через торрент
    Скачать бесплатно Знахарь
    Знахарь скачать торрент
    Знахарь смотреть онлайн
    Cкачать фильм Знахарь бесплатно
    Знахарь скачать торрент в хорошем качестве
    Знахарь смотреть онлайн бесплатно в хорошем качестве


    Вы не можете начинать темы
    Вы не можете отвечать на сообщения
    Вы не можете редактировать свои сообщения
    Вы не можете удалять свои сообщения
    Вы не можете голосовать в опросах
    Вы не можете прикреплять файлы к сообщениям
    Вы можете скачивать файлы