Ссылка на приватное зеркало всего за 1$. Внимание количество ограничено!!!

OK

1+1

iTunes

мы

OK

1

WEB-DLRip

Джокер

Пифагор

Ведьмак / The Witcher сериал

Лицензия

ПШазам

ОК

Оно 2

iTunes

30
pack

Вам бонус

ВАЖНО

!!Акция!!

Alien_RageХит недели

RePack

Resident Evil 21

ИГРА 18+

pack

RePack

jed

!!Акция!!

Alien_Rage

RePack

fifa19

RePack

Assassins Creed: Odyssey

RePack

NEED FOR SPEED™ PAYBACK

4 сезон

9 сезон

Бесстыжие 9 сезон

Все сериалы

все сериалы на PB.wtf

RePack

FAR CRY 5
  

Как победить дороговизну жизни / How to Beat the High Co$t of Living (Роберт Ширер) [1980, комедия, криминал, BDRip (AVC) by msltel] DVO pb.wtf

Как победить дороговизну жизни через торрент pb.wtf

Размер: 2.62 GB | Добавлен: 3 мес. 19 д. назад | Торрент скачан:5 раз
Скачать  

28-09-2019 06:30 Как победить дороговизну жизни Скачать торрент  

Название: Как победить дороговизну жизни
Оригинальное название: How to Beat the High Co$t of Living
Год выпуска: 1980
Страна: США
Жанр: комедия, криминал
Продолжительность: 01:44:41
Перевод: профессиональный двухголосый

Режиссер: Роберт Ширер
В ролях: Сьюзан Сент Джеймс, Джейн Куртин, Джессика Лэнг, Ричард Бенджамин, Эдди Альберт, Кэтрин Дэймон, Дэбни Коулмэн, Фред Уиллард, Арт Метрано, Ронни Шелл, Майкл Белл, Сибил Дэннинг, Аль Кекко, Сьюзэн Толски, Кармен Сапата

О фильме: Орегон. 1980. Джейн, Элайн и Луиза ощущают на себе инфляцию и не могут обеспечить себе достойную жизнь. В местном торговом центре объявляется соревнование, где главный приз - гигантский шар с деньгами. Элайн придумывает план, как выкрасть оттуда деньги и поделить на троих...



Качество: BDRip (AVC)
Формат: MKV
Видео: MPEG-4 AVC, 3191 Kбит/с, 1024x556, 23.976 кадр/с
Аудио 1: русский, AC3, 192 kbps, 2 ch, 48 kHz [закадровый двухголосый, HTB+]
Аудио 2: английский, AC3, 192 kbps, 2 ch, 48 kHz [оригинал]
Субтитры: английские
Главы/чаптеры
Общее
Уникальный идентификатор : 202922461325678632454698816701965718402 (0x98A971C87F2EEB62BC1F1353281ED382)
Полное имя : D:\Video\Как победить дороговизну жизни.1980.BDRip (AVC) by msltel.mkv
Формат : Matroska
Версия формата : Version 4
Размер файла : 2,62 Гбайт
Продолжительность : 1 ч. 44 м.
Общий поток : 3577 Кбит/сек
Название фильма : Rip by msltel
Дата кодирования : UTC 2019-09-28 02:41:25
Программа кодирования : mkvmerge v8.2.0 ('World of Adventure') 64bit
Библиотека кодирования : libebml v1.3.1 + libmatroska v1.4.2

Видео
Идентификатор : 1
Формат : AVC
Формат/Информация : Advanced Video Codec
Профиль формата : High@L4.1
Настройки формата : CABAC / 9 Ref Frames
Параметр CABAC формата : Да
Параметр RefFrames формата : 9 кадров
Идентификатор кодека : V_MPEG4/ISO/AVC
Продолжительность : 1 ч. 44 м.
Битрейт : 3191 Кбит/сек
Ширина : 1024 пикселя
Высота : 556 пикселей
Соотношение сторон : 1,85:1
Режим частоты кадров : Постоянный
Частота кадров : 23,976 (24000/1001) кадра/сек
Цветовое пространство : YUV
Субдискретизация насыщенности : 4:2:0
Битовая глубина : 8 бит
Тип развёртки : Прогрессивная
Бит/(Пиксели*Кадры) : 0.234
Размер потока : 2,33 Гбайт (89%)
Библиотека кодирования : x264 core 157 r2935 545de2f
Настройки программы : cabac=1 / ref=9 / deblock=1:-2:-2 / analyse=0x3:0x113 / me=umh / subme=11 / psy=1 / psy_rd=1.00:0.15 / mixed_ref=1 / me_range=32 / chroma_me=1 / trellis=2 / 8x8dct=1 / cqm=0 / deadzone=21,11 / fast_pskip=0 / chroma_qp_offset=-3 / threads=6 / lookahead_threads=1 / sliced_threads=0 / nr=0 / decimate=1 / interlaced=0 / bluray_compat=0 / constrained_intra=0 / bframes=10 / b_pyramid=2 / b_adapt=2 / b_bias=0 / direct=1 / weightb=1 / open_gop=0 / weightp=2 / keyint=230 / keyint_min=23 / scenecut=40 / intra_refresh=0 / rc_lookahead=40 / rc=crf / mbtree=1 / crf=20.0 / qcomp=0.60 / qpmin=0 / qpmax=69 / qpstep=4 / vbv_maxrate=50000 / vbv_bufsize=62500 / crf_max=0.0 / nal_hrd=none / filler=0 / ip_ratio=1.40 / aq=1:1.00
Язык : English
Default : Да
Forced : Нет

Аудио #1
Идентификатор : 2
Формат : AC-3
Формат/Информация : Audio Coding 3
Коммерческое название : Dolby Digital
Идентификатор кодека : A_AC3
Продолжительность : 1 ч. 44 м.
Вид битрейта : Постоянный
Битрейт : 192 Кбит/сек
Каналы : 2 канала
ChannelLayout : L R
Частота : 48,0 КГц
Частота кадров : 31,250 кадров/сек (1536 SPF)
Метод сжатия : С потерями
Размер потока : 144 Мбайт (5%)
Заголовок : DVO HTB+
Язык : Russian
ServiceKind/String : Complete Main
Default : Да
Forced : Нет

Аудио #2
Идентификатор : 3
Формат : AC-3
Формат/Информация : Audio Coding 3
Коммерческое название : Dolby Digital
Идентификатор кодека : A_AC3
Продолжительность : 1 ч. 44 м.
Вид битрейта : Постоянный
Битрейт : 192 Кбит/сек
Каналы : 2 канала
ChannelLayout : L R
Частота : 48,0 КГц
Частота кадров : 31,250 кадров/сек (1536 SPF)
Метод сжатия : С потерями
Размер потока : 144 Мбайт (5%)
Заголовок : original
Язык : English
ServiceKind/String : Complete Main
Default : Нет
Forced : Нет

Текст
Идентификатор : 4
Формат : UTF-8
Идентификатор кодека : S_TEXT/UTF8
Идентификатор кодека/Информация : UTF-8 Plain Text
Продолжительность : 1 ч. 39 м.
Битрейт : 75 бит/сек
ElementCount : 1557
Размер потока : 55,0 Кбайт (0%)
Заголовок : английские
Язык : English
Default : Нет
Forced : Нет

Меню
00:00:00.000 : :01
00:00:10.927 : :02
00:12:20.698 : :03
00:23:25.153 : :04
00:34:58.137 : :05
00:49:22.668 : :06
01:01:47.995 : :07
01:15:17.596 : :08
01:32:17.573 : :09
01:44:52.244 : :10
pb.wtf



Скачать Как победить дороговизну жизни через торрент https://a.radikal.ru/a02/1909/bd/ae09043465b7.jpg Скачать фильм Как победить дороговизну жизни через торрент бесплантно в хорошем качестве О фильме: Орегон. 1980. Джейн, Элайн и Луиза ощущают на себе инфляцию и не могут обеспечить себе достойную жизнь. В местном торговом центре ... 10 10 1
Торрент: Зарегистрирован [2019-09-28 06:30] · скачан: 5 раз
Статус: √ проверено
Размер: 2.62 GB
Как cкачать? Как скачать Как победить дороговизну жизни через торрент | qTorrent

% Раздел Тема Автор DL S | L
Фильмы [HD 720p, 1080p] (Хороший звук DUB, MVO) [ 11.55 GB ] Как победить дороговизну жизни / How to Beat the High Co$t of Living [1980 BDRip 1080p by msltel] DVO msltel Скачать
1 | 0
Фильмы [HD 720p, 1080p] (Хороший звук DUB, MVO) [ 4.49 GB ] Как победить дороговизну жизни / How to Beat the High Co$t of Living [1980 BDRip 720p by msltel] DVO msltel Скачать
1 | 0

28-11-2019 20:33  

Отключить всю рекламу на сайте

    Дорогой пользователь! Огромная просьба, поблагодарите релизера, оцените раздачу и оставьте свои комментарий, если Вы скачали Как победить дороговизну жизни через торрент бесплатно! Внесите свою лепту в развитие PiratBit!
    Комментировать посты могут только пользователи прошедшие не сложную регистрацию
    Показать сообщения:    

    Как победить дороговизну жизни через торрент
    Скачать бесплатно Как победить дороговизну жизни
    Как победить дороговизну жизни скачать торрент
    Как победить дороговизну жизни смотреть онлайн
    Cкачать фильм Как победить дороговизну жизни бесплатно
    Как победить дороговизну жизни скачать торрент в хорошем качестве
    Как победить дороговизну жизни смотреть онлайн бесплатно в хорошем качестве


    Вы не можете начинать темы
    Вы не можете отвечать на сообщения
    Вы не можете редактировать свои сообщения
    Вы не можете удалять свои сообщения
    Вы не можете голосовать в опросах
    Вы не можете прикреплять файлы к сообщениям
    Вы можете скачивать файлы