Ссылка на приватное зеркало всего за 1$. Внимание количество ограничено!!!

OK

1+1

iTunes

мы

OK

1

WEB-DLRip

Джокер

Пифагор

Ведьмак / The Witcher сериал

Лицензия

ПШазам

ОК

Оно 2

iTunes

30
pack

Вам бонус

ВАЖНО

!!Акция!!

Alien_RageХит недели

RePack

Resident Evil 21

ИГРА 18+

pack

RePack

jed

RePack

fifa19

RePack

Assassins Creed: Odyssey

RePack

NEED FOR SPEED™ PAYBACK

4 сезон

9 сезон

Бесстыжие 9 сезон

Все сериалы

все сериалы на PB.wtf

RePack

FAR CRY 5
  

Нирвана / Nirvana (Габриэле Сальваторес) [1997, фантастика, боевик, киберпанк, DVDRip-AVC] [DVO] pb.wtf

Нирвана через торрент pb.wtf

Размер: 2.84 GB | Добавлен: 3 мес. 24 д. назад | Торрент скачан:10 раз
Скачать  

29-09-2019 17:24 Нирвана Скачать торрент  

Нирвана / Nirvana Год выпуска: 1997
Страна: Франция, Великобритания, Италия
Студия: Cecchi Gori Group Tiger Cinematografica, Colorado Film Production
Жанр: фантастика, боевик, киберпанк
Продолжительность: 01:49:20
Перевод: Профессиональный (двухголосый закадровый)
Субтитры: русские, английские

Режиссер: Габриэле Сальваторес / Gabriele Salvatores

В ролях: Кристофер Ламберт (Cristopher Lambert), Аманда Сандрелли (Amanda Sandrelli), Эмманюэль Сенье (Emmanuelle Seigner), Клаудио Бизио (Claudio Bisio), Диего Абатантуоно (Diego Abatantuono)

Описание: 2005 год. Компания Окосама Старр собирается выпустить к Рождеству новую виртуальную игру Нирвана, в которой возможно все. Но игра дает сбои и способна нанести вред разуму и здоровью игроков. Создатель Нирваны Джими решает уничтожить игру. Для этого он сам отправляется в Нирвану за три дня до Рождества…
rating
Сэмпл: http://multi-up.com/1241103

Качество видео: DVDRip-AVC
Формат видео: MKV

Видео: 700x546 (995x546 anamorphic, 16:9), 25.000 fps, x264 core 157, ~2,952 kbps, 8 bit, 0.309 bit/pixel
Аудио: Russian, 48.0 KHz, AC3, 5.1 ch, 384 Kbps
Аудио 2: Italian, 48.0 KHz, AC3, 5.1 ch, 384 Kbps
Формат субтитров: softsub (SRT)
General
Unique ID : 265235714866990498310013301623602357570 (0xC78A8A6207D963C1CE94A04B4A192542)
Complete name : Nirvana.1997.DVDRip.x264.Rus.Ita-TMNEMONIC.mkv
Format : Matroska
Format version : Version 4
File size : 2.84 GiB
Duration : 1 h 49 min
Overall bit rate : 3 721 kb/s
Movie name : Nirvana (1997)
Encoded date : UTC 2019-09-13 17:57:30
Writing application : mkvmerge v37.0.0 ('Leave It') 64-bit
Writing library : libebml v1.3.9 + libmatroska v1.5.2

Video
ID : 1
Format : AVC
Format/Info : Advanced Video Codec
Format profile : High@L4.1
Format settings : CABAC / 16 Ref Frames
Format settings, CABAC : Yes
Format settings, Reference frames : 16 frames
Codec ID : V_MPEG4/ISO/AVC
Duration : 1 h 49 min
Bit rate : 2 952 kb/s
Width : 700 pixels
Height : 546 pixels
Display aspect ratio : 1.85:1
Frame rate mode : Constant
Frame rate : 25.000 FPS
Color space : YUV
Chroma subsampling : 4:2:0
Bit depth : 8 bits
Scan type : Progressive
Bits/(Pixel*Frame) : 0.309
Stream size : 2.25 GiB (79%)
Title : [x264][TMNEMONIC]
Writing library : x264 core 157 r2935 545de2f
Encoding settings : cabac=1 / ref=16 / deblock=1:-1:-1 / analyse=0x3:0x133 / me=umh / subme=10 / psy=1 / psy_rd=1.00:0.15 / mixed_ref=1 / me_range=24 / chroma_me=1 / trellis=2 / 8x8dct=1 / cqm=0 / deadzone=21,11 / fast_pskip=1 / chroma_qp_offset=-3 / threads=17 / lookahead_threads=2 / sliced_threads=0 / nr=0 / decimate=1 / interlaced=0 / bluray_compat=0 / constrained_intra=0 / bframes=8 / b_pyramid=2 / b_adapt=2 / b_bias=0 / direct=3 / weightb=1 / open_gop=0 / weightp=2 / keyint=250 / keyint_min=25 / scenecut=40 / intra_refresh=0 / rc_lookahead=60 / rc=crf / mbtree=1 / crf=16.5 / qcomp=0.60 / qpmin=0 / qpmax=69 / qpstep=4 / vbv_maxrate=62500 / vbv_bufsize=78125 / crf_max=0.0 / nal_hrd=none / filler=0 / ip_ratio=1.40 / aq=1:1.00
Default : Yes
Forced : No
Color range : Limited
Color primaries : BT.601 PAL
Transfer characteristics : BT.709
Matrix coefficients : BT.601

Audio #1
ID : 2
Format : AC-3
Format/Info : Audio Coding 3
Commercial name : Dolby Digital
Codec ID : A_AC3
Duration : 1 h 49 min
Bit rate mode : Constant
Bit rate : 384 kb/s
Channel(s) : 6 channels
Channel layout : L R C LFE Ls Rs
Sampling rate : 48.0 kHz
Frame rate : 31.250 FPS (1536 SPF)
Compression mode : Lossy
Stream size : 300 MiB (10%)
Title : [5.1]
Language : Russian
Service kind : Complete Main
Default : No
Forced : No

Audio #2
ID : 3
Format : AC-3
Format/Info : Audio Coding 3
Commercial name : Dolby Digital
Codec ID : A_AC3
Duration : 1 h 49 min
Bit rate mode : Constant
Bit rate : 384 kb/s
Channel(s) : 6 channels
Channel layout : L R C LFE Ls Rs
Sampling rate : 48.0 kHz
Frame rate : 31.250 FPS (1536 SPF)
Compression mode : Lossy
Stream size : 300 MiB (10%)
Title : [5.1]
Language : Italian
Service kind : Complete Main
Default : No
Forced : No

Text #1
ID : 4
Format : UTF-8
Codec ID : S_TEXT/UTF8
Codec ID/Info : UTF-8 Plain Text
Duration : 1 h 44 min
Bit rate : 110 b/s
Count of elements : 1457
Stream size : 85.1 KiB (0%)
Language : Russian
Default : No
Forced : No

Text #2
ID : 5
Format : UTF-8
Codec ID : S_TEXT/UTF8
Codec ID/Info : UTF-8 Plain Text
Duration : 1 h 43 min
Bit rate : 57 b/s
Count of elements : 1332
Stream size : 43.4 KiB (0%)
Language : English
Default : No
Forced : No

Menu
00:00:00.000 : :Chapter 1
00:04:01.440 : :Chapter 2
00:07:42.840 : :Chapter 3
00:19:11.280 : :Chapter 4
00:20:44.280 : :Chapter 5
00:23:05.520 : :Chapter 6
00:29:33.000 : :Chapter 7
00:33:49.440 : :Chapter 8
00:40:45.720 : :Chapter 9
00:44:16.200 : :Chapter 10
00:51:51.240 : :Chapter 11
00:54:43.800 : :Chapter 12
00:57:59.880 : :Chapter 13
01:02:29.640 : :Chapter 14
01:06:17.400 : :Chapter 15
01:09:04.920 : :Chapter 16
01:11:47.760 : :Chapter 17
01:18:09.120 : :Chapter 18
01:21:06.960 : :Chapter 19
01:23:49.440 : :Chapter 20
01:29:55.800 : :Chapter 21
01:34:38.880 : :Chapter 22
01:39:49.680 : :Chapter 23
01:42:29.040 : :Chapter 24
скриншот  скриншот  скриншот  
pb.wtf



Скачать Нирвана через торрент https://i90.fastpic.ru/big/2019/0913/a9/66c4ca15fb7fec4b7a54a2401781c7a9.jpg Скачать фильм Нирвана через торрент бесплантно в хорошем качестве Описание: 2005 год. Компания Окосама Старр собирается выпустить к Рождеству новую виртуальную игру Нирвана, в которой возможно все. Но игра ... 10 10 1
Торрент: Зарегистрирован [2019-09-29 17:24] · скачан: 10 раз
Статус: √ проверено
Размер: 2.84 GB
Как cкачать? Как скачать Нирвана через торрент | qTorrent

% Раздел Тема Автор DL S | L
Фильмы до 2000 г. [ 846 MB ] Нирвана / Nirvana [1997 DVDRip] [DVO] + [AVO] killermax2013 Скачать
1 | 0

28-11-2019 20:33  

Отключить всю рекламу на сайте

    Дорогой пользователь! Огромная просьба, поблагодарите релизера, оцените раздачу и оставьте свои комментарий, если Вы скачали Нирвана через торрент бесплатно! Внесите свою лепту в развитие PiratBit!
    Комментировать посты могут только пользователи прошедшие не сложную регистрацию
    Показать сообщения:    

    Нирвана через торрент
    Скачать бесплатно Нирвана
    Нирвана скачать торрент
    Нирвана смотреть онлайн
    Cкачать фильм Нирвана бесплатно
    Нирвана скачать торрент в хорошем качестве
    Нирвана смотреть онлайн бесплатно в хорошем качестве


    Вы не можете начинать темы
    Вы не можете отвечать на сообщения
    Вы не можете редактировать свои сообщения
    Вы не можете удалять свои сообщения
    Вы не можете голосовать в опросах
    Вы не можете прикреплять файлы к сообщениям
    Вы можете скачивать файлы