новый адрес пиратбит piratbit
Мега распродажа FORZA HORIZON 4 ULTIMATE+ВСЕ DLC+ОНЛАЙН всего за 499р. 349 руб. (супер цена). Внимание количество ограничено!!!

iTunes

1+1

iTunes

мы

iTunes

1

iTunes

Чернобыль

iTunes

Ральф против интернета

Лицензия

ПШазам

Лицензия

Игра престолов

Лицензия

30
pack

ВАЖНО

!!Акция!!

Alien_RageХит недели

RePack

Resident Evil 21

ИГРА 18+

pack

RePack

Metro:Exodus

!!Акция!!

Alien_Rage

RePack

fifa19

RePack

Assassins Creed: Odyssey

RePack

NEED FOR SPEED™ PAYBACK

3 сезон

9 сезон

Бесстыжие 9 сезон

Все сериалы

все сериалы на PB.wtf

RePack

FAR CRY 5
Ребята, катастрофически не хватает 1900р. для оплаты серверов за Октябрь (всвязи с блокировками трафик упал в 3 раза), 1-2р., выручайте.
  

Во время грозы / Durante la tormenta / Mirage (Ориол Паоло) [2018, триллер, драма, фэнтези, детектив, BDRip-AVC] [MVO] (HDRezka Studio) - ExKinoRay pb.wtf

Во время грозы через торрент pb.wtf

Раздают: 14 [ 4 KB/s ]
Размер: 2.17 GB | Добавлен: 1 мес. 14 д. назад | Торрент скачан:217 раз
Скачать  

30-09-2019 02:41 Во время грозы Скачать торрент  

Информация о фильме
Название: Во время грозы
Оригинальное название: Durante la tormenta
Год выхода: 2018
Жанр: триллер, драма, фэнтези, детектив
Режиссер: Ориол Паоло
В ролях: Адриана Угарте, Чино Дарин, Хавьер Гутьеррес, Альваро Морте, Нора Навас, Микель Фернандес, Клара Сегура, Мима Риера, Айна Клотет, Альберт Перес

О фильме:
Счастливая женщина Вера с мужем и маленькой дочкой переезжает в новый дом. А там во время сильной грозы происходит смещение временных пластов, в результате чего женщина пытается спасти от гибели мальчика, жившего тут 25 лет назад. Но этот акт доброй воли приводит к тому, что Вера оказывается в изменённом настоящем, в котором супруг её не знает, и её собственная дочь не родилась...

rating

Страна: Испания
Студия: Atresmedia Cine, Colosé Producciones, Mirage Studio
Продолжительность: 02:08:58
Перевод: Профессиональный (многоголосый, закадровый) | HDRezka Studio

БЕЗ КАКОЙ-ЛИБО РЕКЛАМЫ!

Формат: MKV
Качество: BDRip-AVC
Видео: MPEG-4 AVC, 720x302 (2.40:1), 23.976 fps, 1960 Kbps, 0.376 bit/pixel
Аудио #01: 48 kHz, AC3, 2.0, 192 Kbps | HDRezka Studio | RUS | ]
Аудио #02: 48 kHz, AC3, 5.1, 256 Kbps | Оригинал | SPA |
Субтитры: Русские (full)
General
Unique ID : 239336361906124731770120728159251526775 (0xB40E81B1B0695FB8A2CB3D0A803AF477)
Complete name : F:\Mirage.2018.BDRip.AVC.ExKinoRay.mkv
Format : Matroska
Format version : Version 2
File size : 2.17 GiB
Duration : 2 h 8 min
Overall bit rate : 2 404 kb/s
Movie name : Mirage 2018 from ExKinoRay
Encoded date : UTC 2019-09-30 01:48:33
Writing application : mkvmerge v5.6.0 ('Kenya Kane') built on May 27 2012 16:44:04
Writing library : libebml v1.2.3 + libmatroska v1.3.0

Video
ID : 1
Format : AVC
Format/Info : Advanced Video Codec
Format profile : High@L4.1
Format settings, CABAC : Yes
Format settings, ReFrames : 11 frames
Codec ID : V_MPEG4/ISO/AVC
Duration : 2 h 8 min
Bit rate : 1 960 kb/s
Width : 720 pixels
Height : 302 pixels
Display aspect ratio : 2.40:1
Frame rate mode : Constant
Frame rate : 23.976 (24000/1001) FPS
Color space : YUV
Chroma subsampling : 4:2:0
Bit depth : 8 bits
Scan type : Progressive
Bits/(Pixel*Frame) : 0.376
Stream size : 1.72 GiB (79%)
Title : Enigma
Writing library : x264 core 152 r2851 ba24899
Encoding settings : cabac=1 / ref=11 / deblock=1:-2:-2 / analyse=0x3:0x113 / me=umh / subme=10 / psy=1 / psy_rd=1.00:0.05 / mixed_ref=1 / me_range=32 / chroma_me=1 / trellis=2 / 8x8dct=1 / cqm=0 / deadzone=21,11 / fast_pskip=0 / chroma_qp_offset=-3 / threads=9 / lookahead_threads=2 / sliced_threads=0 / nr=0 / decimate=0 / interlaced=0 / bluray_compat=0 / constrained_intra=0 / bframes=10 / b_pyramid=2 / b_adapt=2 / b_bias=0 / direct=3 / weightb=1 / open_gop=0 / weightp=2 / keyint=240 / keyint_min=23 / scenecut=40 / intra_refresh=0 / rc=2pass / mbtree=0 / bitrate=1960 / ratetol=1.0 / qcomp=0.60 / qpmin=0 / qpmax=51 / qpstep=4 / cplxblur=20.0 / qblur=0.5 / ip_ratio=1.40 / pb_ratio=1.30 / aq=1:1.00
Default : Yes
Forced : No
Color range : Limited
Color primaries : BT.709
Transfer characteristics : BT.709
Matrix coefficients : BT.709

Audio #1
ID : 2
Format : AC-3
Format/Info : Audio Coding 3
Mode extension : CM (complete main)
Format settings, Endianness : Big
Codec ID : A_AC3
Duration : 2 h 8 min
Bit rate mode : Constant
Bit rate : 192 kb/s
Channel(s) : 2 channels
Channel positions : Front: L R
Sampling rate : 48.0 kHz
Frame rate : 31.250 FPS (1536 spf)
Compression mode : Lossy
Stream size : 177 MiB (8%)
Title : MVO
Language : Russian
Default : Yes
Forced : No

Audio #2
ID : 3
Format : AC-3
Format/Info : Audio Coding 3
Mode extension : CM (complete main)
Format settings, Endianness : Big
Codec ID : A_AC3
Duration : 2 h 8 min
Bit rate mode : Constant
Bit rate : 256 kb/s
Channel(s) : 6 channels
Channel positions : Front: L C R, Side: L R, LFE
Sampling rate : 48.0 kHz
Frame rate : 31.250 FPS (1536 spf)
Compression mode : Lossy
Stream size : 236 MiB (11%)
Language : English
Default : No
Forced : No

Text
ID : 4
Format : UTF-8
Codec ID : S_TEXT/UTF8
Codec ID/Info : UTF-8 Plain Text
Title : Full
Language : Russian
Default : No
Forced : No

Menu
00:00:00.000 : :Chapter 01
00:08:02.564 : :Chapter 02
00:16:47.340 : :Chapter 03
00:24:41.313 : :Chapter 04
00:32:52.885 : :Chapter 05
00:38:51.704 : :Chapter 06
00:48:31.117 : :Chapter 07
00:56:32.014 : :Chapter 08
01:03:06.323 : :Chapter 09
01:10:32.060 : :Chapter 10
01:17:45.743 : :Chapter 11
01:26:27.680 : :Chapter 12
01:35:39.692 : :Chapter 13
01:43:52.643 : :Chapter 14
01:52:36.541 : :Chapter 15
02:02:20.375 : :Chapter 16


Релиз от: pb.wtf



Скачать Во время грозы через торрент https://a.radikal.ru/a13/1909/71/3b22c1f31ff4.jpg Скачать фильм Во время грозы через торрент бесплантно в хорошем качестве О фильме:Счастливая женщина Вера с мужем и маленькой дочкой переезжает в новый дом. А там во время сильной грозы происходит смещение ... 8 10 2
Info! Золотая раздача, скачанное не засчитывается.
Торрент: Зарегистрирован [2019-09-30 02:41] · скачан: 217 раз
Статус: T временная
Размер: 2.17 GB
Как cкачать? Как скачать Во время грозы через торрент | qTorrent

% Раздел Тема Автор DL S | L
T Фильмы 2018 [DVDrip, WEB-DLRip, HDrip] (DUB, MVO) [ 2.08 GB ] Во время грозы / Durante la tormenta / Mirage [2018 WEB-DLRip] [MVO] - ExKinoRay Enigma2010 Скачать
27 | 1


>> Регистрируемся здесь <<






Отзывы и комментарии о схеме читаем и пишем здесь: ---> Отзывы и комментарии о схеме

Новые благодарочки в телеграм довольных пользователей:
скриншот   скриншот   скриншот   скриншот   скриншот
    Дорогой пользователь! Огромная просьба, поблагодарите релизера, оцените раздачу и оставьте свои комментарий, если Вы скачали Во время грозы через торрент бесплатно! Внесите свою лепту в развитие PiratBit!
    Комментировать посты могут только пользователи прошедшие не сложную регистрацию
    Показать сообщения:    

    Во время грозы через торрент
    Скачать бесплатно Во время грозы
    Во время грозы скачать торрент
    Во время грозы смотреть онлайн
    Cкачать фильм Во время грозы бесплатно
    Во время грозы скачать торрент в хорошем качестве
    Во время грозы смотреть онлайн бесплатно в хорошем качестве


    Вы не можете начинать темы
    Вы не можете отвечать на сообщения
    Вы не можете редактировать свои сообщения
    Вы не можете удалять свои сообщения
    Вы не можете голосовать в опросах
    Вы не можете прикреплять файлы к сообщениям
    Вы можете скачивать файлы