новый адрес пиратбит piratbit
Мега распродажа FORZA HORIZON 4 ULTIMATE+ВСЕ DLC+ОНЛАЙН всего за 499р. 349 руб. (супер цена). Внимание количество ограничено!!!

iTunes

1+1

iTunes

мы

iTunes

1

iTunes

Чернобыль

iTunes

Ральф против интернета

Лицензия

ПШазам

Лицензия

Игра престолов

Лицензия

30
pack

ВАЖНО

!!Акция!!

Alien_RageХит недели

RePack

Resident Evil 21

ИГРА 18+

pack

RePack

Metro:Exodus

!!Акция!!

Alien_Rage

RePack

fifa19

RePack

Assassins Creed: Odyssey

RePack

NEED FOR SPEED™ PAYBACK

3 сезон

9 сезон

Бесстыжие 9 сезон

Все сериалы

все сериалы на PB.wtf

RePack

FAR CRY 5
Ребята, катастрофически не хватает 1900р. для оплаты серверов за Октябрь (всвязи с блокировками трафик упал в 3 раза), 1-2р., выручайте.
  

Поворот не туда 2: Тупик / Wrong Turn 2: Dead End (Джо Линч) [2007 г., ужасы, триллер, BDRip 720p, Дубляж] pb.wtf

Поворот не туда 2: Тупик через торрент pb.wtf

Раздают: 1 [ 0 KB/s ]
Размер: 7.75 GB | Добавлен: 1 мес. 6 д. назад | Торрент скачан:25 раз
Скачать  

08-10-2019 04:13 Поворот не туда 2: Тупик Скачать торрент  

Поворот не туда 2: Тупик /
Wrong Turn 2: Dead End
Год выпуска: 2007
Страна: США
Жанр: ужасы, триллер
Продолжительность: 01:36:57
Перевод: Дубляж
Субтитры: отсутствуют

Режиссер: Джо Линч

Премьера в мире: 25 августа 2007

rating

В ролях: Эрика Лирсен, Генри Роллинз, Тексас Бэттл, Алекса Палладино, Даниэлла Алонсо, Стив Браун, Мэттью Карри Холмс, Кристал Лоу, Кимберли Колдуэлл, Уэйн Робсон

Описание: В печально известном по событиям первого фильма лесу, местная телекомпания снимает реалити-шоу в духе «Последнего героя». Участникам проекта предстоит вести образ жизни первобытных племен без современных средств связи… на радость обитающим неподалеку каннибалам.

Качество: BDRip 720p
Формат: MKV
Видео кодек: H.264
Аудио кодек: AC3
Видео: AVC/H.264, 1280x720 (16:9), ~11,1 Mbps
Аудио#1: AC3, 6 ch, 384 kbps - Дубляж
Релиз от: winchester00100010
x264 [info]: profile High, level 4.1
x264 [info]: frame I:953 Avg QP:15.93 size:159516 PSNR Mean Y:47.42 U:51.45 V:51.91 Avg:48.29 Global:47.40
x264 [info]: frame P:34490 Avg QP:18.08 size: 84079 PSNR Mean Y:45.74 U:50.29 V:50.87 Avg:46.67 Global:45.62
x264 [info]: frame B:104032 Avg QP:20.02 size: 47926 PSNR Mean Y:44.23 U:49.64 V:50.36 Avg:45.21 Global:43.88

Общее
Уникальный идентификатор : 216421834825146330206095335590684382797 (0xA2D1544879E2B7F08BB5DEBC97E9D64D)
Полное имя : E:\МОИ РАЗДАЧИ ФИЛЬМЫ И СЕРИАЛЫ\Wrong.Turn.2.Dead.End.2007.Unrated.BDRip.720p.mkv
Формат : Matroska
Версия формата : Version 2
Размер файла : 7,75 Гбайт
Продолжительность : 1 ч. 36 м.
Общий поток : 11,4 Мбит/сек
Дата кодирования : UTC 2019-10-08 02:24:20
Программа кодирования : mkvmerge v7.8.0 ('River Man') 32bit built on Apr 3 2015 12:11:22
Библиотека кодирования : libebml v1.3.1 + libmatroska v1.4.2

Видео
Идентификатор : 1
Формат : AVC
Формат/Информация : Advanced Video Codec
Профиль формата : High@L4.1
Настройки формата : CABAC / 9 Ref Frames
Параметр CABAC формата : Да
Параметр RefFrames формата : 9 кадров
Идентификатор кодека : V_MPEG4/ISO/AVC
Продолжительность : 1 ч. 36 м.
Битрейт : 11,1 Мбит/сек
Ширина : 1280 пикселей
Высота : 720 пикселей
Соотношение сторон : 16:9
Режим частоты кадров : Постоянный
Частота кадров : 23,976 (24000/1001) кадра/сек
Цветовое пространство : YUV
Субдискретизация насыщенности : 4:2:0
Битовая глубина : 8 бит
Тип развёртки : Прогрессивная
Бит/(Пиксели*Кадры) : 0.501
Размер потока : 7,33 Гбайт (95%)
Библиотека кодирования : x264 core 146 r2538 121396c
Настройки программы : cabac=1 / ref=9 / deblock=1:-3:-3 / analyse=0x3:0x113 / me=umh / subme=10 / psy=1 / psy_rd=1.00:0.15 / mixed_ref=1 / me_range=32 / chroma_me=1 / trellis=2 / 8x8dct=1 / cqm=0 / deadzone=21,11 / fast_pskip=0 / chroma_qp_offset=-3 / threads=12 / lookahead_threads=2 / sliced_threads=0 / nr=0 / decimate=0 / interlaced=0 / bluray_compat=0 / constrained_intra=0 / bframes=10 / b_pyramid=2 / b_adapt=2 / b_bias=0 / direct=3 / weightb=1 / open_gop=0 / weightp=2 / keyint=240 / keyint_min=23 / scenecut=40 / intra_refresh=0 / rc_lookahead=40 / rc=2pass / mbtree=0 / bitrate=11070 / ratetol=1.0 / qcomp=0.60 / qpmin=0 / qpmax=69 / qpstep=4 / cplxblur=20.0 / qblur=0.5 / vbv_maxrate=50000 / vbv_bufsize=62500 / nal_hrd=none / filler=0 / ip_ratio=1.40 / pb_ratio=1.30 / aq=1:0.90
Default : Да
Forced : Нет

Аудио
Идентификатор : 2
Формат : AC-3
Формат/Информация : Audio Coding 3
Коммерческое название : Dolby Digital
Идентификатор кодека : A_AC3
Продолжительность : 1 ч. 36 м.
Вид битрейта : Постоянный
Битрейт : 384 Кбит/сек
Каналы : 6 каналов
ChannelLayout : L R C LFE Ls Rs
Частота : 48,0 КГц
Частота кадров : 31,250 кадров/сек (1536 SPF)
Метод сжатия : С потерями
Размер потока : 266 Мбайт (3%)
ServiceKind/String : Complete Main
Default : Да
Forced : Нет

pb.wtf



Скачать Поворот не туда 2: Тупик через торрент https://a.radikal.ru/a05/1910/6b/69e7c9fe1905.jpg Скачать фильм Поворот не туда 2: Тупик через торрент бесплантно в хорошем качестве Описание: В печально известном по событиям первого фильма лесу, местная телекомпания снимает реалити-шоу в духе «Последнего героя». ... 6 10 3
Info! Золотая раздача, скачанное не засчитывается.
Торрент: Зарегистрирован [2019-10-08 04:13] · скачан: 25 раз
Статус: √ проверено
Размер: 7.75 GB
Как cкачать? Как скачать Поворот не туда 2: Тупик через торрент | qTorrent

% Раздел Тема Автор DL S | L
Фильмы [HD 720p, 1080p] (Хороший звук DUB, MVO) [ 8.21 GB ] Поворот не туда 2: Тупик / Wrong Turn 2: Dead End [2007 BDRip ] DUB markfiter Скачать
1 | 0
Фильмы 2006-2008 [ 1.72 GB ] Поворот не туда 2: Тупик / Wrong Turn 2: Dead End [Unrated] [2007 HDRip] DUB BaRSSS Скачать
1 | 0
Фильмы (DVD фильмы) [ 4.04 GB ] Поворот не туда 2: Тупик / Wrong Turn 2: Dead End [2007 DVD5] BuHTuK Скачать
1 | 0


>> Регистрируемся здесь <<






Отзывы и комментарии о схеме читаем и пишем здесь: ---> Отзывы и комментарии о схеме

Новые благодарочки в телеграм довольных пользователей:
скриншот   скриншот   скриншот   скриншот   скриншот

08-10-2019 07:53 Поворот не туда 2: Тупик Скачать торрент  

Описание - огонь! )))pb.wtf



08-10-2019 09:46 Поворот не туда 2: Тупик Скачать торрент  

john054 писал(а):

Описание - огонь! )))

Какое есть на кинопоиске ахаха, согласен, огонь))pb.wtf



    Дорогой пользователь! Огромная просьба, поблагодарите релизера, оцените раздачу и оставьте свои комментарий, если Вы скачали Поворот не туда 2: Тупик через торрент бесплатно! Внесите свою лепту в развитие PiratBit!
    Комментировать посты могут только пользователи прошедшие не сложную регистрацию
    Показать сообщения:    

    Поворот не туда 2: Тупик через торрент
    Скачать бесплатно Поворот не туда 2: Тупик
    Поворот не туда 2: Тупик скачать торрент
    Поворот не туда 2: Тупик смотреть онлайн
    Cкачать фильм Поворот не туда 2: Тупик бесплатно
    Поворот не туда 2: Тупик скачать торрент в хорошем качестве
    Поворот не туда 2: Тупик смотреть онлайн бесплатно в хорошем качестве


    Вы не можете начинать темы
    Вы не можете отвечать на сообщения
    Вы не можете редактировать свои сообщения
    Вы не можете удалять свои сообщения
    Вы не можете голосовать в опросах
    Вы не можете прикреплять файлы к сообщениям
    Вы можете скачивать файлы