новый адрес пиратбит piratbit
Мега распродажа FORZA HORIZON 4 ULTIMATE+ВСЕ DLC+ОНЛАЙН всего за 499р. 349 руб. (супер цена). Внимание количество ограничено!!!

iTunes

1+1

iTunes

мы

iTunes

1

iTunes

Чернобыль

iTunes

Ральф против интернета

Лицензия

ПШазам

Лицензия

Игра престолов

Лицензия

30
pack

ВАЖНО

!!Акция!!

Alien_RageХит недели

RePack

Resident Evil 21

ИГРА 18+

pack

RePack

Metro:Exodus

!!Акция!!

Alien_Rage

RePack

fifa19

RePack

Assassins Creed: Odyssey

RePack

NEED FOR SPEED™ PAYBACK

3 сезон

9 сезон

Бесстыжие 9 сезон

Все сериалы

все сериалы на PB.wtf

RePack

FAR CRY 5
Ребята, катастрофически не хватает 1900р. для оплаты серверов за Октябрь (всвязи с блокировками трафик упал в 3 раза), 1-2р., выручайте.
  

El Camino: Во все тяжкие / El Camino: A Breaking Bad Movie (Винс Гиллиган / Vince Gilligan) [2019, драма, криминал, WEBRip 720p] [MVO] (HamsterStudio) pb.wtf

El Camino: Во все тяжкие через торрент pb.wtf

Раздают: 16 [ 16 KB/s ]
Размер: 5.59 GB | Добавлен: 1 мес. назад | Торрент скачан:376 раз
Скачать  

12-10-2019 16:41 El Camino: Во все тяжкие Скачать торрент  

El Camino: Во все тяжкие / El Camino: A Breaking Bad Movie

Страна: США
Жанр: драма, криминал
Год выпуска: 2019
Продолжительность: 02:02:42

Перевод: Любительский (многоголосый закадровый) HamsterStudio
Субтитры: русские, английские и другие

Режиссер: Винс Гиллиган / Vince Gilligan

В ролях: Аарон Пол, Брайан Крэнстон, Джесси Племонс, Мэтт Джонс, Джонатан Бэнкс, Чарльз Бэйкер, Ларри Хэнкин, Кевин О. Ранкин, Тесс Харпер, Марла Гиббс

Описание: Джесси Пинкман сбежал от неонацистов. Не зная, куда ему податься, он скрывается от полиции, похитителей и прошлого. Теперь он должен понять, как ему жить дальше.



rating скриншот  

Тип релиза: WEBRip 720p
Контейнер: MKV

Видео: AVC, 5 364 Кбит/сек, 1280x534, 24.000 кадр/сек
Аудио 1: AC3, 384 Kbps, 2 channels, 48.0 KHz [HamsterStudio]
Аудио 2: E-AC-3 JOC, 768 kbps, 6 channels, 48.0 KHz [английский]
Формат субтитров: softsub (SRT)
General
Unique ID : 277512674838668665077721203211137021540 (0xD0C6FF3E22F7230FA703AC048D657664)
Complete name : D:\TORRENTS\El.Camino.A.Breaking.Bad.Movie.2019.720p.HamsterStudio.mkv
Format : Matroska
Format version : Version 4
File size : 5.59 GiB
Duration : 2 h 2 min
Overall bit rate : 6 519 kb/s
Encoded date : UTC 2019-10-12 13:16:46
Writing application : mkvmerge v38.0.0 ('The Silent Type') 64-bit
Writing library : libebml v1.3.9 + libmatroska v1.5.2

Video
ID : 1
Format : AVC
Format/Info : Advanced Video Codec
Format profile : High@L4.1
Format settings : CABAC / 12 Ref Frames
Format settings, CABAC : Yes
Format settings, Reference fra : 12 frames
Codec ID : V_MPEG4/ISO/AVC
Duration : 2 h 2 min
Bit rate : 5 364 kb/s
Width : 1 280 pixels
Height : 534 pixels
Display aspect ratio : 2.40:1
Frame rate mode : Constant
Frame rate : 24.000 FPS
Color space : YUV
Chroma subsampling : 4:2:0
Bit depth : 8 bits
Scan type : Progressive
Bits/(Pixel*Frame) : 0.327
Stream size : 4.60 GiB (82%)
Writing library : x264 core 158 r2984+47 456d10a t_mod_New [0-bit@all X86_64]
Encoding settings : cabac=1 / ref=12 / deblock=1:-3:-3 / analyse=0x3:0x133 / me=umh / subme=10 / psy=1 / fade_compensate=0.00 / psy_rd=1.00:0.15 / mixed_ref=1 / me_range=48 / chroma_me=1 / trellis=2 / 8x8dct=1 / cqm=0 / deadzone=21,11 / fast_pskip=0 / chroma_qp_offset=-3 / threads=12 / lookahead_threads=2 / sliced_threads=0 / nr=0 / decimate=0 / interlaced=0 / bluray_compat=0 / constrained_intra=0 / fgo=0 / bframes=8 / b_pyramid=2 / b_adapt=2 / b_bias=0 / direct=3 / weightb=1 / open_gop=0 / weightp=2 / keyint=250 / keyint_min=24 / scenecut=40 / intra_refresh=0 / rc=crf / mbtree=0 / crf=16.0000 / qcomp=0.60 / qpmin=0:0:0 / qpmax=69:69:69 / qpstep=4 / ip_ratio=1.30 / pb_ratio=1.20 / aq=3:0.80 / aq-sensitivity=10.00 / aq-factor=1.00:1.00:1.00 / aq2=0 / aq3=0
Language : English
Default : Yes
Forced : No

Audio #1
ID : 2
Format : AC-3
Format/Info : Audio Coding 3
Commercial name : Dolby Digital
Codec ID : A_AC3
Duration : 2 h 2 min
Bit rate mode : Constant
Bit rate : 384 kb/s
Channel(s) : 2 channels
Channel layout : L R
Sampling rate : 48.0 kHz
Frame rate : 31.250 FPS (1536 SPF)
Compression mode : Lossy
Stream size : 336 MiB (6%)
Title : HamsterStudio
Language : Russian
Service kind : Complete Main
Default : Yes
Forced : Yes

Audio #2
ID : 3
Format : E-AC-3 JOC
Format/Info : Enhanced AC-3 with Joint Object Coding
Commercial name : Dolby Digital Plus with Dolby Atmos
Codec ID : A_EAC3
Duration : 2 h 2 min
Bit rate mode : Constant
Bit rate : 768 kb/s
Channel(s) : 6 channels
Channel layout : L R C LFE Ls Rs
Sampling rate : 48.0 kHz
Frame rate : 31.250 FPS (1536 SPF)
Compression mode : Lossy
Stream size : 674 MiB (12%)
Title : English
Language : English
Service kind : Complete Main
Default : No
Forced : No
Complexity index : 16
Number of dynamic objects : 15
Bed channel count : 1 channel
Bed channel configuration : LFE

Text #1
ID : 4
Format : UTF-8
Codec ID : S_TEXT/UTF8
Codec ID/Info : UTF-8 Plain Text
Duration : 2 h 1 min
Bit rate : 51 b/s
Count of elements : 1544
Stream size : 46.2 KiB (0%)
Title : SDH
Language : English
Default : No
Forced : No

Text #2
ID : 5
Format : UTF-8
Codec ID : S_TEXT/UTF8
Codec ID/Info : UTF-8 Plain Text
Duration : 2 h 1 min
Bit rate : 63 b/s
Count of elements : 1210
Stream size : 56.4 KiB (0%)
Language : Arabic
Default : No
Forced : No

Text #3
ID : 6
Format : UTF-8
Codec ID : S_TEXT/UTF8
Codec ID/Info : UTF-8 Plain Text
Duration : 2 h 1 min
Bit rate : 35 b/s
Count of elements : 1168
Stream size : 31.8 KiB (0%)
Language : Czech
Default : No
Forced : No

Text #4
ID : 7
Format : UTF-8
Codec ID : S_TEXT/UTF8
Codec ID/Info : UTF-8 Plain Text
Duration : 2 h 1 min
Bit rate : 36 b/s
Count of elements : 970
Stream size : 33.0 KiB (0%)
Language : Danish
Default : No
Forced : No

Text #5
ID : 8
Format : UTF-8
Codec ID : S_TEXT/UTF8
Codec ID/Info : UTF-8 Plain Text
Duration : 2 h 1 min
Bit rate : 36 b/s
Count of elements : 1139
Stream size : 32.6 KiB (0%)
Language : German
Default : No
Forced : No

Text #6
ID : 9
Format : UTF-8
Codec ID : S_TEXT/UTF8
Codec ID/Info : UTF-8 Plain Text
Duration : 2 h 1 min
Bit rate : 61 b/s
Count of elements : 1211
Stream size : 54.6 KiB (0%)
Language : Greek
Default : No
Forced : No

Text #7
ID : 10
Format : UTF-8
Codec ID : S_TEXT/UTF8
Codec ID/Info : UTF-8 Plain Text
Duration : 2 h 1 min
Bit rate : 36 b/s
Count of elements : 1183
Stream size : 32.9 KiB (0%)
Language : Spanish
Default : No
Forced : No

Text #8
ID : 11
Format : UTF-8
Codec ID : S_TEXT/UTF8
Codec ID/Info : UTF-8 Plain Text
Duration : 2 h 1 min
Bit rate : 35 b/s
Count of elements : 1170
Stream size : 31.6 KiB (0%)
Title : European
Language : Spanish
Default : No
Forced : No

Text #9
ID : 12
Format : UTF-8
Codec ID : S_TEXT/UTF8
Codec ID/Info : UTF-8 Plain Text
Duration : 2 h 1 min
Bit rate : 34 b/s
Count of elements : 978
Stream size : 30.9 KiB (0%)
Language : Finnish
Default : No
Forced : No

Text #10
ID : 13
Format : UTF-8
Codec ID : S_TEXT/UTF8
Codec ID/Info : UTF-8 Plain Text
Duration : 2 h 1 min
Bit rate : 35 b/s
Count of elements : 1182
Stream size : 31.4 KiB (0%)
Language : French
Default : No
Forced : No

Text #11
ID : 14
Format : UTF-8
Codec ID : S_TEXT/UTF8
Codec ID/Info : UTF-8 Plain Text
Duration : 2 h 1 min
Bit rate : 58 b/s
Count of elements : 1213
Stream size : 52.6 KiB (0%)
Language : Hebrew
Default : No
Forced : No

Text #12
ID : 15
Format : UTF-8
Codec ID : S_TEXT/UTF8
Codec ID/Info : UTF-8 Plain Text
Duration : 2 h 1 min
Bit rate : 36 b/s
Count of elements : 1177
Stream size : 32.3 KiB (0%)
Language : Hungarian
Default : No
Forced : No

Text #13
ID : 16
Format : UTF-8
Codec ID : S_TEXT/UTF8
Codec ID/Info : UTF-8 Plain Text
Duration : 2 h 1 min
Bit rate : 34 b/s
Count of elements : 1210
Stream size : 30.6 KiB (0%)
Language : Indonesian
Default : No
Forced : No

Text #14
ID : 17
Format : UTF-8
Codec ID : S_TEXT/UTF8
Codec ID/Info : UTF-8 Plain Text
Duration : 2 h 1 min
Bit rate : 33 b/s
Count of elements : 1160
Stream size : 29.7 KiB (0%)
Language : Italian
Default : No
Forced : No

Text #15
ID : 18
Format : UTF-8
Codec ID : S_TEXT/UTF8
Codec ID/Info : UTF-8 Plain Text
Duration : 2 h 1 min
Bit rate : 36 b/s
Count of elements : 1151
Stream size : 32.2 KiB (0%)
Language : Japanese
Default : No
Forced : No

Text #16
ID : 19
Format : UTF-8
Codec ID : S_TEXT/UTF8
Codec ID/Info : UTF-8 Plain Text
Duration : 2 h 1 min
Bit rate : 43 b/s
Count of elements : 1190
Stream size : 39.3 KiB (0%)
Language : Korean
Default : No
Forced : No

Text #17
ID : 20
Format : UTF-8
Codec ID : S_TEXT/UTF8
Codec ID/Info : UTF-8 Plain Text
Duration : 2 h 1 min
Bit rate : 37 b/s
Count of elements : 911
Stream size : 33.3 KiB (0%)
Language : Norwegian Bokmal
Default : No
Forced : No

Text #18
ID : 21
Format : UTF-8
Codec ID : S_TEXT/UTF8
Codec ID/Info : UTF-8 Plain Text
Duration : 2 h 1 min
Bit rate : 37 b/s
Count of elements : 1011
Stream size : 33.1 KiB (0%)
Language : Dutch
Default : No
Forced : No

Text #19
ID : 22
Format : UTF-8
Codec ID : S_TEXT/UTF8
Codec ID/Info : UTF-8 Plain Text
Duration : 2 h 1 min
Bit rate : 34 b/s
Count of elements : 1199
Stream size : 30.8 KiB (0%)
Language : Polish
Default : No
Forced : No

Text #20
ID : 23
Format : UTF-8
Codec ID : S_TEXT/UTF8
Codec ID/Info : UTF-8 Plain Text
Duration : 2 h 1 min
Bit rate : 38 b/s
Count of elements : 1202
Stream size : 34.3 KiB (0%)
Language : Portuguese
Default : No
Forced : No

Text #21
ID : 24
Format : UTF-8
Codec ID : S_TEXT/UTF8
Codec ID/Info : UTF-8 Plain Text
Duration : 1 h 55 min
Bit rate : 36 b/s
Count of elements : 1205
Stream size : 30.9 KiB (0%)
Title : Brazilian
Language : Portuguese
Default : No
Forced : No

Text #22
ID : 25
Format : UTF-8
Codec ID : S_TEXT/UTF8
Codec ID/Info : UTF-8 Plain Text
Duration : 2 h 1 min
Bit rate : 41 b/s
Count of elements : 1149
Stream size : 37.0 KiB (0%)
Language : Romanian
Default : No
Forced : No

Text #23
ID : 26
Format : UTF-8
Codec ID : S_TEXT/UTF8
Codec ID/Info : UTF-8 Plain Text
Duration : 2 h 1 min
Bit rate : 60 b/s
Count of elements : 1175
Stream size : 54.1 KiB (0%)
Language : Russian
Default : No
Forced : No

Text #24
ID : 27
Format : UTF-8
Codec ID : S_TEXT/UTF8
Codec ID/Info : UTF-8 Plain Text
Duration : 2 h 1 min
Bit rate : 35 b/s
Count of elements : 1081
Stream size : 31.6 KiB (0%)
Language : Swedish
Default : No
Forced : No

Text #25
ID : 28
Format : UTF-8
Codec ID : S_TEXT/UTF8
Codec ID/Info : UTF-8 Plain Text
Duration : 2 h 1 min
Bit rate : 97 b/s
Count of elements : 1213
Stream size : 87.5 KiB (0%)
Language : Thai
Default : No
Forced : No

Text #26
ID : 29
Format : UTF-8
Codec ID : S_TEXT/UTF8
Codec ID/Info : UTF-8 Plain Text
Duration : 2 h 1 min
Bit rate : 36 b/s
Count of elements : 1143
Stream size : 32.2 KiB (0%)
Language : Turkish
Default : No
Forced : No

Text #27
ID : 30
Format : UTF-8
Codec ID : S_TEXT/UTF8
Codec ID/Info : UTF-8 Plain Text
Duration : 2 h 1 min
Bit rate : 48 b/s
Count of elements : 1210
Stream size : 43.4 KiB (0%)
Language : Vietnamese
Default : No
Forced : No

Text #28
ID : 31
Format : UTF-8
Codec ID : S_TEXT/UTF8
Codec ID/Info : UTF-8 Plain Text
Duration : 2 h 1 min
Bit rate : 39 b/s
Count of elements : 1194
Stream size : 35.5 KiB (0%)
Title : Simplified
Language : Chinese
Default : No
Forced : No

Text #29
ID : 32
Format : UTF-8
Codec ID : S_TEXT/UTF8
Codec ID/Info : UTF-8 Plain Text
Duration : 2 h 1 min
Bit rate : 34 b/s
Count of elements : 1215
Stream size : 30.8 KiB (0%)
Title : Traditional
Language : Chinese
Default : No
Forced : No
скриншот  скриншот  скриншот  
pb.wtf



Скачать El Camino: Во все тяжкие через торрент https://i89.fastpic.ru/big/2019/1011/8e/370ceda1c971dbb7395b757e32c41c8e.jpg Скачать фильм El Camino: Во все тяжкие через торрент бесплантно в хорошем качестве Описание: Джесси Пинкман сбежал от неонацистов. Не зная, куда ему податься, он скрывается от полиции, похитителей и прошлого. Теперь он ... 9.4 10 14
Торрент: Зарегистрирован [2019-10-12 16:41] · скачан: 376 раз
Статус: T временная
Размер: 5.59 GB
Как cкачать? Как скачать El Camino: Во все тяжкие через торрент | qTorrent

% Раздел Тема Автор DL S | L
Фильмы 2019 [DVDrip, WEB-DLRip, HDrip] (DUB, MVO) [ 1.46 GB ] Путь: Во все тяжкие / El Camino: A Breaking Bad Movie [2019 WEB-DLRip] DVO [Кубик в Кубе] bober100 Скачать
39 | 0
Фильмы 2019 [DVDrip, WEB-DLRip, HDrip] (DUB, MVO) [ 3.31 GB ] Путь: Во все тяжкие / El Camino: A Breaking Bad Movie [2019 WEB-DLRip-AVC] MVO [Jaskier LostFilm IdeaFilm HamsterStudio] DVO [Кубик в Кубе] - ExKinoRay Enigma2010 Скачать
132 | 3
Фильмы (WEB-DL 720p, 1080p) [ 11.89 GB ] Путь: Во все тяжкие / El Camino: A Breaking Bad Movie [2019 WEB-DL 1080p] MVO [Jaskier LostFilm] DVO [Кубик в Кубе] - ExKinoRay Enigma2010 Скачать
583 | 60
Ultra HD (UHD: 2K, 4K, 8K) — видео сверхвысокой чёткости [ 35.53 GB ] El Camino: Во все тяжкие / El Camino: A Breaking Bad Movie [2019 UHD WEB-DL 2160p] [SDR] DVO + 3xMVO sheker187 Скачать
2 | 2
Ultra HD (UHD: 2K, 4K, 8K) — видео сверхвысокой чёткости [ 18.77 GB ] El Camino: Во все тяжкие / El Camino: A Breaking Bad Movie [2019 UHD WEB-DL 2160p] DVO + 2xMVO sheker187 Скачать
4 | 0
T Фильмы (мультфильмы) cо спонсором показа (Новинки AVI/MKV) [ 5.7 GB ] Путь: Во все тяжкие / El Camino: A Breaking Bad Movie [2019 WEBRip 720p] DVO [Кубик в Кубе] bober100 Скачать
19 | 0
Фильмы (WEB-DL 720p, 1080p) [ 3.44 GB ] Путь: Во все тяжкие / El Camino: A Breaking Bad Movie [2019 WEB-DL 1080p] MVO [LostFilm] bober100 Скачать
19 | 0


>> Регистрируемся здесь <<






Отзывы и комментарии о схеме читаем и пишем здесь: ---> Отзывы и комментарии о схеме

Новые благодарочки в телеграм довольных пользователей:
скриншот   скриншот   скриншот   скриншот   скриншот

12-10-2019 18:53 El Camino: Во все тяжкие Скачать торрент  

Судя по рейтингу 9.3 - фильм бомба!
Спасибо и надеюсь что без дергающейся картинки ))pb.wtf



13-10-2019 08:53 El Camino: Во все тяжкие Скачать торрент  

Sep-ultura писал(а):

Судя по рейтингу 9.3 - фильм бомба!
Спасибо и надеюсь что без дергающейся картинки ))

к вопросу об общественных рейтингах:
„Мнение большинства — всегда ошибочно, ибо большинство людей — идиоты.“ — Эдгар Аллан По
Но обязательно глянем, старик Аарон - неплохой актер ))
Как всегда - спасибо за релиз!pb.wtf



13-10-2019 18:15 El Camino: Во все тяжкие Скачать торрент  

Салют!!!Автору GG!!! pb.wtf



13-10-2019 18:55 El Camino: Во все тяжкие Скачать торрент  

Как перевод нормальный или кал?!pb.wtf



13-10-2019 21:31 El Camino: Во все тяжкие Скачать торрент  

Актер этот нравится и сериал Во все тяжкие.. Но у этого фильма рейтинг не адекватный. Фильм не понравился, вообще ни о чем)pb.wtf



14-10-2019 18:07 El Camino: Во все тяжкие Скачать торрент  

Размер поменьше запилить фильму никак?тут за глаза фаила на 1 гиг смотреть то особо не на что только диалогиpb.wtf



    Дорогой пользователь! Огромная просьба, поблагодарите релизера, оцените раздачу и оставьте свои комментарий, если Вы скачали El Camino: Во все тяжкие через торрент бесплатно! Внесите свою лепту в развитие PiratBit!
    Комментировать посты могут только пользователи прошедшие не сложную регистрацию
    Показать сообщения:    

    El Camino: Во все тяжкие через торрент
    Скачать бесплатно El Camino: Во все тяжкие
    El Camino: Во все тяжкие скачать торрент
    El Camino: Во все тяжкие смотреть онлайн
    Cкачать фильм El Camino: Во все тяжкие бесплатно
    El Camino: Во все тяжкие скачать торрент в хорошем качестве
    El Camino: Во все тяжкие смотреть онлайн бесплатно в хорошем качестве


    Вы не можете начинать темы
    Вы не можете отвечать на сообщения
    Вы не можете редактировать свои сообщения
    Вы не можете удалять свои сообщения
    Вы не можете голосовать в опросах
    Вы не можете прикреплять файлы к сообщениям
    Вы можете скачивать файлы