новый адрес пиратбит piratbit
Мега распродажа FORZA HORIZON 4 ULTIMATE+ВСЕ DLC+ОНЛАЙН всего за 499р. 349 руб. (супер цена). Внимание количество ограничено!!!

iTunes

1+1

iTunes

мы

iTunes

1

iTunes

Чернобыль

iTunes

Ральф против интернета

Лицензия

ПШазам

Лицензия

Игра престолов

Лицензия

30
pack

ВАЖНО

!!Акция!!

Alien_RageХит недели

RePack

Resident Evil 21

ИГРА 18+

pack

RePack

Metro:Exodus

!!Акция!!

Alien_Rage

RePack

fifa19

RePack

Assassins Creed: Odyssey

RePack

NEED FOR SPEED™ PAYBACK

3 сезон

9 сезон

Бесстыжие 9 сезон

Все сериалы

все сериалы на PB.wtf

RePack

FAR CRY 5
Ребята, катастрофически не хватает 1900р. для оплаты серверов за Октябрь (всвязи с блокировками трафик упал в 3 раза), 1-2р., выручайте.
  

Тачка на миллион / Driven (Ник Хэмм) [2018, Драма, биография, комедия, криминал, BDRip-AVC] DUB (rus,ukr) [iTunes] +MVO [HDRezka Studio] pb.wtf

Тачка на миллион через торрент pb.wtf

Раздают: 3 [ 0 KB/s ]
Размер: 2.25 GB | Добавлен: 28 д. назад | Торрент скачан:82 раза
Скачать  

15-10-2019 01:22 Тачка на миллион Скачать торрент  

Тачка на миллион / Driven«How a Lemon Became a Legend»
Год выпуска: 2018
Страна: Пуэрто Рико, Великобритания, США
Жанр: Драма, биография, комедия, криминал
Продолжительность: 01:53:53
Перевод:

#1: Дублированный | iTunes
#2: Профессиональный многоголосый | HDRezka Studio

Субтитры: Русские (полные), Английские (полные, SDH)

Режиссер: Ник Хэмм

rating

В ролях: Джейсон Судейкис, Ли Пейс, Кори Столл, Джуди Грир, Эрин Мориарти, Джастин Барта, Иддо Голдберг, Майкл Кадлитц, Изабель Арраиса, Тара Саммерс

Описание: Калифорния — место, где сливаются политика и большой бизнес, любимое место богатых и знаменитых. Рисковый игрок, плейбой и гениальный конструктор Джон ДеЛориан мечтает создать самый крутой автомобиль на планете. Бунтарь до последнего вздоха, он не остановится ни перед чем ради достижения цели — подарить миру тачку на миллион.

Качество: BDRip-AVC
Формат: MKV

Видео: 1024x428 (2.40:1), 23,976 fps, x264 ~1 804 kbps avg, 0.172 bit/pixel
Аудио#1: 48 kHz, AC3 Dolby Digital, 3/2 (L,C,R,l,r) + LFE ch, ~384.00 kbps avg | RUS (iTunes)
Аудио#2: 48 kHz, AC3 Dolby Digital, 2 (L,R), ~192.00 kbps avg | RUS (HDRezka Studio)
Аудио#3: 48 kHz, AC3 Dolby Digital, 3/2 (L,C,R,l,r) + LFE ch, ~448.00 kbps
скриншот  скриншот  скриншот  скриншот  скриншот  

Общее
Уникальный идентификатор : 56978935610162020463143936490795093342 (0x2ADDBE6B9559577F1724299F606ACD5E)
Полное имя : F:OlLanDGroupDriven.2018.BDRip(AVC).OlLanDGroup.mkv
Формат : Matroska
Версия формата : Version 4 / Version 2
Размер файла : 2,25 Гбайт
Продолжительность : 1 ч. 53 м.
Общий поток : 2829 Кбит/сек
Название фильма : Driven.2018 #TorpedoUK#
Дата кодирования : UTC 2019-10-15 00:22:54
Программа кодирования : mkvmerge v29.0.0 ('Like It Or Not') 64-bit
Библиотека кодирования : libebml v1.3.6 + libmatroska v1.4.9

Видео
Идентификатор : 1
Формат : AVC
Формат/Информация : Advanced Video Codec
Профиль формата : High@L4.1
Параметр CABAC формата : Да
Параметр ReFrames формата : 10 кадров
Идентификатор кодека : V_MPEG4/ISO/AVC
Продолжительность : 1 ч. 53 м.
Битрейт : 1804 Кбит/сек
Ширина : 1024 пикселя
Высота : 428 пикселей
Соотношение сторон : 2,40:1
Режим частоты кадров : Постоянный
Частота кадров : 23,976 (24000/1001) кадра/сек
Цветовое пространство : YUV
Субдискретизация насыщенности : 4:2:0
Битовая глубина : 8 бит
Тип развёртки : Прогрессивная
Бит/(Пиксели*Кадры) : 0.172
Размер потока : 1,43 Гбайт (64%)
Библиотека кодирования : x264 core 146 r2538 121396c
Настройки программы : cabac=1 / ref=10 / deblock=1:-3:-3 / analyse=0x3:0x113 / me=umh / subme=11 / psy=1 / psy_rd=1.00:0.03 / mixed_ref=1 / me_range=48 / chroma_me=1 / trellis=2 / 8x8dct=1 / cqm=0 / deadzone=21,11 / fast_pskip=1 / chroma_qp_offset=-6 / threads=6 / lookahead_threads=1 / sliced_threads=0 / nr=0 / decimate=1 / interlaced=0 / bluray_compat=0 / constrained_intra=0 / bframes=11 / b_pyramid=2 / b_adapt=2 / b_bias=0 / direct=3 / weightb=1 / open_gop=0 / weightp=2 / keyint=240 / keyint_min=23 / scenecut=40 / intra_refresh=0 / rc_lookahead=40 / rc=2pass / mbtree=0 / bitrate=1804 / ratetol=1.0 / qcomp=0.60 / qpmin=0 / qpmax=69 / qpstep=4 / cplxblur=20.0 / qblur=0.5 / vbv_maxrate=50000 / vbv_bufsize=62500 / nal_hrd=none / filler=0 / ip_ratio=1.40 / pb_ratio=1.30 / aq=1:1.00
Язык : English
Default : Да
Forced : Нет

Аудио #1
Идентификатор : 2
Формат : AC-3
Формат/Информация : Audio Coding 3
Расширение режима : CM (complete main)
Параметр Endianness формата : Big
Идентификатор кодека : A_AC3
Продолжительность : 1 ч. 53 м.
Вид битрейта : Постоянный
Битрейт : 384 Кбит/сек
Каналы : 6 каналов
Расположение каналов : Front: L C R, Side: L R, LFE
Частота : 48,0 КГц
Частота кадров : 31,250 кадров/сек (1536 spf)
Битовая глубина : 16 бит
Метод сжатия : С потерями
Размер потока : 313 Мбайт (14%)
Заголовок : DUB [iTunes]
Язык : Russian
Default : Да
Forced : Нет

Аудио #2
Идентификатор : 3
Формат : AC-3
Формат/Информация : Audio Coding 3
Расширение режима : CM (complete main)
Параметр Endianness формата : Big
Идентификатор кодека : A_AC3
Продолжительность : 1 ч. 53 м.
Вид битрейта : Постоянный
Битрейт : 192 Кбит/сек
Каналы : 2 канала
Расположение каналов : Front: L R
Частота : 48,0 КГц
Частота кадров : 31,250 кадров/сек (1536 spf)
Битовая глубина : 16 бит
Метод сжатия : С потерями
Размер потока : 156 Мбайт (7%)
Заголовок : MVO [HDRezka Studio]
Язык : Russian
Default : Нет
Forced : Нет

Аудио #3
Идентификатор : 4
Формат : AC-3
Формат/Информация : Audio Coding 3
Расширение режима : CM (complete main)
Параметр Endianness формата : Big
Идентификатор кодека : A_AC3
Продолжительность : 1 ч. 53 м.
Вид битрейта : Постоянный
Битрейт : 448 Кбит/сек
Каналы : 6 каналов
Расположение каналов : Front: L C R, Side: L R, LFE
Частота : 48,0 КГц
Частота кадров : 31,250 кадров/сек (1536 spf)
Битовая глубина : 16 бит
Метод сжатия : С потерями
Размер потока : 365 Мбайт (16%)
Заголовок : [Original]
Язык : English
Default : Нет
Forced : Нет

Текст #1
Идентификатор : 5
Формат : UTF-8
Идентификатор кодека : S_TEXT/UTF8
Идентификатор кодека/Информация : UTF-8 Plain Text
Продолжительность : 1 ч. 47 м.
Битрейт : 121 бит/сек
Count of elements : 1484
Размер потока : 95,6 Кбайт (0%)
Заголовок : Full
Язык : Russian
Default : Нет
Forced : Нет

Текст #2
Идентификатор : 6
Формат : UTF-8
Идентификатор кодека : S_TEXT/UTF8
Идентификатор кодека/Информация : UTF-8 Plain Text
Продолжительность : 1 ч. 52 м.
Битрейт : 75 бит/сек
Count of elements : 1677
Размер потока : 62,1 Кбайт (0%)
Заголовок : Full
Язык : English
Default : Нет
Forced : Нет

Текст #3
Идентификатор : 7
Формат : UTF-8
Идентификатор кодека : S_TEXT/UTF8
Идентификатор кодека/Информация : UTF-8 Plain Text
Продолжительность : 1 ч. 52 м.
Битрейт : 80 бит/сек
Count of elements : 1831
Размер потока : 66,4 Кбайт (0%)
Заголовок : SDH
Язык : English
Default : Нет
Forced : Нет

Меню
00:00:00.000 : en:Chapter 01
00:09:19.308 : en:Chapter 02
00:18:03.957 : en:Chapter 03
00:30:09.557 : en:Chapter 04
00:38:58.544 : en:Chapter 05
00:46:08.056 : en:Chapter 06
00:57:25.733 : en:Chapter 07
01:08:21.972 : en:Chapter 08
01:18:45.595 : en:Chapter 09
01:24:16.176 : en:Chapter 10
01:36:29.825 : en:Chapter 11
01:43:08.599 : en:Chapter 12

pb.wtf



Скачать Тачка на миллион через торрент https://i106.fastpic.ru/big/2019/1001/cf/7bc15ecfc54718afb4ab4b14f3f37dcf.jpg Скачать фильм Тачка на миллион через торрент бесплантно в хорошем качестве Описание: Калифорния — место, где сливаются политика и большой бизнес, любимое место богатых и знаменитых. Рисковый игрок, плейбой и ... 10 10 3
Торрент: Зарегистрирован [2019-10-15 01:22] · скачан: 82 раз
Статус: √ проверено
Размер: 2.25 GB
Как cкачать? Как скачать Тачка на миллион через торрент | qTorrent

% Раздел Тема Автор DL S | L
Фильмы [HD 720p, 1080p] (Хороший звук DUB, MVO) [ 5.16 GB ] Тачка на миллион / Driven [2018 биография BDRip 720p] Dub - ExKinoRay Enigma2010 Скачать
49 | 1
Фильмы 2018 [DVDrip, WEB-DLRip, HDrip] (DUB, MVO) [ 1.41 GB ] Тачка на миллион / Driven [2018 биография BDRip] bober100 Скачать
13 | 0
Фильмы (Blu-ray, BD-Remux, HDDVD) [ 25.73 GB ] Тачка на миллион / Driven [2018 биография BD Remux 1080p] DUB +MVO [HDRezka Studio] bober100 Скачать
1 | 0
Фильмы [HD 720p, 1080p] (Хороший звук DUB, MVO) [ 11.09 GB ] Тачка на миллион / Driven [2018 биография BDRip 1080p] DUB +MVO [HDRezka Studio] bober100 Скачать
4 | 0
T Фильмы [HD 720p, 1080p] (Хороший звук DUB, MVO) [ 4.88 GB ] Тачка на миллион / Driven [2018 биография BDRip 720p] MVO [HDRezka Studio] - ExKinoRay Enigma2010 Скачать
8 | 0
T Фильмы (WEB-DL 720p, 1080p) [ 3.86 GB ] Тачка на миллион / Driven [2018 биография WEB-DL 720p] MVO [HDRezka Studio] - ExKinoRay Enigma2010 Скачать
17 | 1
T Фильмы 2018 [DVDrip, WEB-DLRip, HDrip] (DUB, MVO) [ 1.45 GB ] Тачка на миллион / Driven [2018 биография WEB-DLRip] MVO [HDRezka Studio] - ExKinoRay Enigma2010 Скачать
29 | 2


>> Регистрируемся здесь <<






Отзывы и комментарии о схеме читаем и пишем здесь: ---> Отзывы и комментарии о схеме

Новые благодарочки в телеграм довольных пользователей:
скриншот   скриншот   скриншот   скриншот   скриншот
    Дорогой пользователь! Огромная просьба, поблагодарите релизера, оцените раздачу и оставьте свои комментарий, если Вы скачали Тачка на миллион через торрент бесплатно! Внесите свою лепту в развитие PiratBit!
    Комментировать посты могут только пользователи прошедшие не сложную регистрацию
    Показать сообщения:    

    Тачка на миллион через торрент
    Скачать бесплатно Тачка на миллион
    Тачка на миллион скачать торрент
    Тачка на миллион смотреть онлайн
    Cкачать фильм Тачка на миллион бесплатно
    Тачка на миллион скачать торрент в хорошем качестве
    Тачка на миллион смотреть онлайн бесплатно в хорошем качестве


    Вы не можете начинать темы
    Вы не можете отвечать на сообщения
    Вы не можете редактировать свои сообщения
    Вы не можете удалять свои сообщения
    Вы не можете голосовать в опросах
    Вы не можете прикреплять файлы к сообщениям
    Вы можете скачивать файлы