новый адрес
Ссылка на приватное зеркало всего за 1$. Внимание количество ограничено!!!

iTunes

1+1

iTunes

мы

WEB-DL

1

iTunes

Чернобыль

iTunes

Ральф против интернета

Лицензия

ПШазам

Лицензия

Оно 2

Лицензия

30
pack

Вам бонус

ВАЖНО

!!Акция!!

Alien_RageХит недели

RePack

Resident Evil 21

ИГРА 18+

pack

RePack

jed

!!Акция!!

Alien_Rage

RePack

fifa19

RePack

Assassins Creed: Odyssey

RePack

NEED FOR SPEED™ PAYBACK

3 сезон

9 сезон

Бесстыжие 9 сезон

Все сериалы

все сериалы на PB.wtf

RePack

FAR CRY 5
Ребята, катастрофически не хватает 1900р. для оплаты серверов за Октябрь (всвязи с блокировками трафик упал в 3 раза), 1-2р., выручайте.
  

Дублинские убийства / Dublin Murders / Сезон: 1 / Серии: 1-8 из 8 (Джон Хэйес, Ребекка Гатуард, Сол Дибб) [2019, Драма, криминал, WEB-DL 1080p] [MVO] (TVShows) pb.wtf

Дублинские убийства через торрент pb.wtf

Раздают: 1 [ 0 KB/s ] Качают: 1 [ 0 KB/s ]
Размер: 29.03 GB | Добавлен: 1 мес. 2 д. назад | Торрент скачан:6 раз
Скачать  

18-10-2019 15:36 Дублинские убийства Скачать торрент  

Дублинские убийства / Dublin Murders
Год выпуска: 2019
Страна: Великобритания
Жанр: Драма, криминал
Продолжительность: ~ 00:58:00
Перевод: Профессиональный (многоголосый) *TVShows*
Субтитры: нет

Режиссер: Джон Хэйес, Ребекка Гатуард, Сол Дибб

В ролях: Том Вон-Лолор, Киллиан Скотт, Мо Данфорд, Сара Грин, Конлет Хилл, Йен Кенни, Леа Макнамара, Юджин О'Харе, Эми Маккен, Джонни Холден

Описание: Дублинские убийства 1 сезон — британский криминальный сериал.Главный герой — детектив Роб Райли. Главная героиня сериала — напарница Роба, Кесси Мэдокс. Им вдвоем нужно раскрыть дело об убийстве юной девушки. Ее тело нашли на окраине Дублина. Через короткое время, Робу снова дают новое задание: расследование о пропавших детях.

rating

Качество: WEB-DL 1080p
Формат: MKV

Видео: MPEG-4 AVC, ~ 9 200 Кбит/с, 1920x960
Аудио #1: 48.0 kHz, AC3, 6 ch, 384 Кбит/с - TVShows
Аудио #2: 48.0 kHz, EAC3, 6 ch, 640 Кбит/с - ENG
скриншот  скриншот  скриншот  

General
Unique ID : 58624185356951411095968186489205246956 (0x2C1A9B7EDB414DB8FABAF58EF5654BEC)
Complete name : E:\Dublin.Murders.S01.1080p.TVShows\Dublin.Murders.S01E01.1080p.TVShows.mkv
Format : Matroska
Format version : Version 4 / Version 2
File size : 4.20 GiB
Duration : 57 min 57 s
Overall bit rate mode : Constant
Overall bit rate : 10.4 Mb/s
Encoded date : UTC 2019-10-18 14:11:53
Writing application : mkvmerge v33.1.0 ('Primrose') 64-bit
Writing library : libebml v1.3.7 + libmatroska v1.5.0

Video
ID : 1
Format : AVC
Format/Info : Advanced Video Codec
Format profile : High@L4
Format settings : CABAC / 4 Ref Frames
Format settings, CABAC : Yes
Format settings, RefFrames : 4 frames
Codec ID : V_MPEG4/ISO/AVC
Duration : 57 min 57 s
Bit rate mode : Constant
Bit rate : 9 152 kb/s
Nominal bit rate : 10 000 kb/s
Width : 1 920 pixels
Height : 960 pixels
Display aspect ratio : 2.000
Frame rate mode : Constant
Frame rate : 23.976 (24000/1001) FPS
Color space : YUV
Chroma subsampling : 4:2:0
Bit depth : 8 bits
Scan type : Progressive
Bits/(Pixel*Frame) : 0.207
Stream size : 3.71 GiB (88%)
Default : Yes
Forced : No
Color range : Limited
Color primaries : BT.709
Transfer characteristics : BT.709
Matrix coefficients : BT.709

Audio #1
ID : 2
Format : AC-3
Format/Info : Audio Coding 3
Format settings, Endianness : Big
Codec ID : A_AC3
Duration : 57 min 57 s
Bit rate mode : Constant
Bit rate : 384 kb/s
Channel(s) : 6 channels
Channel positions : Front: L C R, Side: L R, LFE
Sampling rate : 48.0 kHz
Frame rate : 31.250 FPS (1536 SPF)
Bit depth : 16 bits
Compression mode : Lossy
Stream size : 159 MiB (4%)
Title : TVShows
Language : Russian
Service kind : Complete Main
Default : Yes
Forced : Yes

Audio #2
ID : 3
Format : E-AC-3
Format/Info : Enhanced Audio Coding 3
Format settings, Endianness : Big
Codec ID : A_EAC3
Duration : 57 min 57 s
Bit rate mode : Constant
Bit rate : 640 kb/s
Channel(s) : 6 channels
Channel positions : Front: L C R, Side: L R, LFE
Sampling rate : 48.0 kHz
Frame rate : 187.500 FPS (256 SPF)
Compression mode : Lossy
Stream size : 265 MiB (6%)
Title : Original
Language : English
Service kind : Complete Main
Default : No
Forced : No

Внимание! Раздача ведётся путём добавления новых серий; при каждом добавлении создаётся новый торрент.
Чтобы начать докачку новой серии, пользователям необходимо сделать следующее:
1. Остановить скачивание;
2. Удалить старый торрент у себя из клиента (старые серии удалять не надо);
3. Скачать новый торрент и запустить его у себя в клиенте вместо старого, при этом указать клиенту путь в старую папку куда и должно происходить скачивание новых серий. Ваш клиент при этом должен произвести хеширование (проверку) старой папки и будет докачивать только те серии, которых у вас ещё нет. Старые серии при этом не удаляются, а продолжают раздаваться! Eсли вы уже удалили старые серии, то предотвратить повторную закачку старых серий можно, отжав галочку в соответствующих местах при запуске нового торрента.
pb.wtf



Скачать Дублинские убийства через торрент https://d.radikal.ru/d36/1910/d3/c877be414fc4.jpg Скачать фильм Дублинские убийства через торрент бесплантно в хорошем качестве Описание: Дублинские убийства 1 сезон — британский криминальный сериал.Главный герой — детектив Роб Райли. Главная героиня сериала — ... 6.4 10 5
Торрент: Зарегистрирован [2019-11-08 17:42] · скачан: 6 раз
Статус: √ проверено
Размер: 29.03 GB
Как cкачать? Как скачать Дублинские убийства через торрент | qTorrent

% Раздел Тема Автор DL S | L
Зарубежные сериалы [ 5.39 GB ] Дублинские убийства / Dublin Murders / Сезон: 1 / Серии: 1-8 из 8 [2019 WEB-DLRip] [MVO] killermax2013 Скачать
4 | 1
Зарубежные сериалы [ 12.73 GB ] Дублинские убийства / Dublin Murders / Сезон: 1 / Серии: 1-8 из 8 [2019 WEB-DL 720p] MVO [TVShows] bober100 Скачать
1 | 0

28-11-2019 20:33  

Отключить всю рекламу на сайте

    Дорогой пользователь! Огромная просьба, поблагодарите релизера, оцените раздачу и оставьте свои комментарий, если Вы скачали Дублинские убийства через торрент бесплатно! Внесите свою лепту в развитие PiratBit!
    Комментировать посты могут только пользователи прошедшие не сложную регистрацию
    Показать сообщения:    

    Дублинские убийства через торрент
    Скачать бесплатно Дублинские убийства
    Дублинские убийства скачать торрент
    Дублинские убийства смотреть онлайн
    Cкачать фильм Дублинские убийства бесплатно
    Дублинские убийства скачать торрент в хорошем качестве
    Дублинские убийства смотреть онлайн бесплатно в хорошем качестве


    Вы не можете начинать темы
    Вы не можете отвечать на сообщения
    Вы не можете редактировать свои сообщения
    Вы не можете удалять свои сообщения
    Вы не можете голосовать в опросах
    Вы не можете прикреплять файлы к сообщениям
    Вы можете скачивать файлы