Ссылка на приватное зеркало нашего сайта всего за 1$. Внимание количество ограничено!!!

2 сезон

iTunes

iTunes

1

iTunes

iTunes

iTunes

WEBRip

iTunes

30
pack

Вам бонус

ВАЖНО

!!Акция!!

Alien_RageХит недели

RePack

Horizon Zero Dawn

ИГРА 18+

pack

RePack

jed

!!Акция!!

Alien_Rage

RePack

fifa19

RePack

Assassins Creed: Odyssey

RePack

NEED FOR SPEED™ PAYBACK

4 сезон

9 сезон

Бесстыжие 9 сезон

Все сериалы

все сериалы на PB.wtf

RePack

FAR CRY 5
  

Местный герой / Local Hero (Билл Форсайт) [1983, драма, комедия, BDRip (AVC) by msltel] MVO pb.wtf

Местный герой через торрент pb.wtf

Размер: 2.94 GB | Добавлен: 11 мес. назад | Торрент скачан:3 раза
Скачать  

22-10-2019 05:57 Местный герой Скачать торрент  

Название: Местный герой
Оригинальное название: Local Hero
Год выпуска: 1983
Страна: Великобритания
Жанр: драма, комедия
Продолжительность: 01:51:38
Перевод: закадровый многоголосый

Режиссер: Билл Форсайт
В ролях: Питер Ригерт, Бёрт Ланкастер, Фалтон Маккэй, Дэнис Лоусон, Норман Ченсер, Питер Каполди, Рикки Фалтон, Алекс Нортон, Дженни Сигроув, Дженнифер Блэк, Кристофер Розицки

О фильме: Сотрудник нефтяной компании KNOX Макинтайр отправляется в шотландскую глушь для решения вопроса о приобретении территории для строительства нефтеперерабатывающего завода. От своего босса, эксцентричного мистера Хаппера (который проходит курс психотерапии у не менее эксцентричного психотерапевта Моритца), он получает особое задание: наблюдать за созвездием Девы и сообщать обо всех необычных событиях в северном небе. Приехав на место, Мак чудесным образом оказывается заворожён красотой местных пейзажей, богатым на зрелища звёздным небом, воздухом и приветливыми жителями небольшого поселения, расположившегося вдоль береговой линии залива. Дела идут неплохо: местные жители рады принять щедрое предложение нефтяной компании и уже готовятся стать богатыми, однако Маку не по душе конечная цель всего этого предприятия... По мнению британского института киноискусств, картина «Местный герой» входит в top100 лучших британских фильмов за всю историю кинематографа под номером 37.



Качество: BDRip (AVC)
Формат: MKV
Видео: MPEG-4 AVC, 3125 Kбит/с, 1024x574, 23.976 кадр/с
Аудио 1: русский, AC3, 192 kbps, 2 ch, 48 kHz [закадровый многоголосый, ТВЦ]
Аудио 2: английский, AC3, 448 kbps, 6 ch, 48 kHz [оригинал]
Субтитры 1: русские
Субтитры 2: английские
Главы/чаптеры
Общее
Уникальный идентификатор : 221718739592044702174768229713013013579 (0xA6CD79D9E798C41FAC443751BAC27C4B)
Полное имя : D:\Video\Местный герой.1983.BDRip (AVC) by msltel.mkv
Формат : Matroska
Версия формата : Version 4
Размер файла : 2,94 Гбайт
Продолжительность : 1 ч. 51 м.
Общий поток : 3767 Кбит/сек
Название фильма : Rip by msltel
Дата кодирования : UTC 2019-10-22 01:33:08
Программа кодирования : mkvmerge v8.2.0 ('World of Adventure') 64bit
Библиотека кодирования : libebml v1.3.1 + libmatroska v1.4.2

Видео
Идентификатор : 1
Формат : AVC
Формат/Информация : Advanced Video Codec
Профиль формата : High@L4.1
Настройки формата : CABAC / 9 Ref Frames
Параметр CABAC формата : Да
Параметр RefFrames формата : 9 кадров
Идентификатор кодека : V_MPEG4/ISO/AVC
Продолжительность : 1 ч. 51 м.
Битрейт : 3125 Кбит/сек
Ширина : 1024 пикселя
Высота : 574 пикселя
Соотношение сторон : 16:9
Режим частоты кадров : Постоянный
Частота кадров : 23,976 (24000/1001) кадра/сек
Цветовое пространство : YUV
Субдискретизация насыщенности : 4:2:0
Битовая глубина : 8 бит
Тип развёртки : Прогрессивная
Бит/(Пиксели*Кадры) : 0.222
Размер потока : 2,44 Гбайт (83%)
Библиотека кодирования : x264 core 157 r2935 545de2f
Настройки программы : cabac=1 / ref=9 / deblock=1:-2:-2 / analyse=0x3:0x113 / me=umh / subme=11 / psy=1 / psy_rd=1.00:0.15 / mixed_ref=1 / me_range=32 / chroma_me=1 / trellis=2 / 8x8dct=1 / cqm=0 / deadzone=21,11 / fast_pskip=0 / chroma_qp_offset=-3 / threads=6 / lookahead_threads=1 / sliced_threads=0 / nr=0 / decimate=1 / interlaced=0 / bluray_compat=0 / constrained_intra=0 / bframes=12 / b_pyramid=2 / b_adapt=2 / b_bias=0 / direct=1 / weightb=1 / open_gop=0 / weightp=2 / keyint=230 / keyint_min=23 / scenecut=40 / intra_refresh=0 / rc_lookahead=40 / rc=crf / mbtree=1 / crf=19.5 / qcomp=0.60 / qpmin=0 / qpmax=69 / qpstep=4 / vbv_maxrate=50000 / vbv_bufsize=62500 / crf_max=0.0 / nal_hrd=none / filler=0 / ip_ratio=1.40 / aq=1:1.00
Язык : English
Default : Да
Forced : Нет

Аудио #1
Идентификатор : 2
Формат : AC-3
Формат/Информация : Audio Coding 3
Коммерческое название : Dolby Digital
Идентификатор кодека : A_AC3
Продолжительность : 1 ч. 51 м.
Вид битрейта : Постоянный
Битрейт : 192 Кбит/сек
Каналы : 2 канала
ChannelLayout : L R
Частота : 48,0 КГц
Частота кадров : 31,250 кадров/сек (1536 SPF)
Метод сжатия : С потерями
Размер потока : 153 Мбайт (5%)
Заголовок : MVO ТВЦ
Язык : Russian
ServiceKind/String : Complete Main
Default : Да
Forced : Нет

Аудио #2
Идентификатор : 3
Формат : AC-3
Формат/Информация : Audio Coding 3
Коммерческое название : Dolby Digital
Идентификатор кодека : A_AC3
Продолжительность : 1 ч. 51 м.
Вид битрейта : Постоянный
Битрейт : 448 Кбит/сек
Каналы : 6 каналов
ChannelLayout : L R C LFE Ls Rs
Частота : 48,0 КГц
Частота кадров : 31,250 кадров/сек (1536 SPF)
Метод сжатия : С потерями
Размер потока : 358 Мбайт (12%)
Заголовок : original
Язык : English
ServiceKind/String : Complete Main
Default : Нет
Forced : Нет

Текст #1
Идентификатор : 4
Формат : UTF-8
Идентификатор кодека : S_TEXT/UTF8
Идентификатор кодека/Информация : UTF-8 Plain Text
Продолжительность : 1 ч. 46 м.
Битрейт : 113 бит/сек
ElementCount : 1529
Размер потока : 88,2 Кбайт (0%)
Заголовок : русские
Язык : Russian
Default : Нет
Forced : Нет

Текст #2
Идентификатор : 5
Формат : UTF-8
Идентификатор кодека : S_TEXT/UTF8
Идентификатор кодека/Информация : UTF-8 Plain Text
Продолжительность : 1 ч. 46 м.
Битрейт : 69 бит/сек
ElementCount : 1551
Размер потока : 54,3 Кбайт (0%)
Заголовок : английские
Язык : English
Default : Нет
Forced : Нет

Меню
00:00:00.000 : en:Chapter 1
00:10:15.865 : en:Chapter 2
00:24:39.228 : en:Chapter 3
00:41:06.047 : en:Chapter 4
00:58:03.605 : en:Chapter 5
01:11:56.187 : en:Chapter 6
01:27:03.635 : en:Chapter 7
01:40:47.041 : en:Chapter 8
pb.wtf



Скачать Местный герой через торрент https://d.radikal.ru/d18/1910/74/16d65ec640ef.jpg Скачать фильм Местный герой через торрент бесплантно в хорошем качестве О фильме: Сотрудник нефтяной компании KNOX Макинтайр отправляется в шотландскую глушь для решения вопроса о приобретении территории для ... 5 10 1
Info! Золотая раздача, скачанное не засчитывается.
Торрент: Зарегистрирован [2019-10-22 05:57] · скачан: 3 раз
Статус: √ проверено
Размер: 2.94 GB
Как cкачать? Как скачать Местный герой через торрент | qTorrent

% Раздел Тема Автор DL S | L
Фильмы [HD 720p, 1080p] (Хороший звук DUB, MVO) [ 4.53 GB ] Местный герой / Local Hero [1983 BDRip 720p by msltel] MVO msltel Скачать
1 | 0
Фильмы [HD 720p, 1080p] (Хороший звук DUB, MVO) [ 14.29 GB ] Местный герой / Local Hero [1983 BDRip 1080p by msltel] MVO msltel Скачать
1 | 0

28-11-2019 20:33  

Отключить всю рекламу на сайте

    Дорогой пользователь! Огромная просьба, поблагодарите релизера, оцените раздачу и оставьте свои комментарий, если Вы скачали Местный герой через торрент бесплатно! Внесите свою лепту в развитие PiratBit!
    Комментировать посты могут только пользователи прошедшие не сложную регистрацию
    Показать сообщения:    

    Местный герой через торрент
    Скачать бесплатно Местный герой
    Местный герой скачать торрент
    Местный герой смотреть онлайн
    Cкачать фильм Местный герой бесплатно
    Местный герой скачать торрент в хорошем качестве
    Местный герой смотреть онлайн бесплатно в хорошем качестве


    Вы не можете начинать темы
    Вы не можете отвечать на сообщения
    Вы не можете редактировать свои сообщения
    Вы не можете удалять свои сообщения
    Вы не можете голосовать в опросах
    Вы не можете прикреплять файлы к сообщениям
    Вы можете скачивать файлы