Ссылка на приватное зеркало всего за 1$. Внимание количество ограничено!!!

OK

1+1

iTunes

мы

OK

1

WEB-DLRip

Джокер

Пифагор

Ведьмак / The Witcher сериал

Лицензия

ПШазам

ОК

Оно 2

iTunes

30
pack

Вам бонус

ВАЖНО

!!Акция!!

Alien_RageХит недели

RePack

Resident Evil 21

ИГРА 18+

pack

RePack

jed

RePack

fifa19

RePack

Assassins Creed: Odyssey

RePack

NEED FOR SPEED™ PAYBACK

4 сезон

9 сезон

Бесстыжие 9 сезон

Все сериалы

все сериалы на PB.wtf

RePack

FAR CRY 5
  

Ангелы Чарли / Charlie's Angels (МакДжи) [2000, боевик, триллер, комедия, криминал, приключения, BDRip (AVC) by msltel] DUB, MVO, 2 x AVO pb.wtf

Ангелы Чарли через торрент pb.wtf

Размер: 3.69 GB | Добавлен: 2 мес. 28 д. назад | Торрент скачан:6 раз
Скачать  

26-10-2019 10:42 Ангелы Чарли Скачать торрент  

Название: Ангелы Чарли
Оригинальное название: Charlie's Angels
Год выпуска: 2000
Страна: США, Германия
Жанр: боевик, триллер, комедия, криминал, приключения
Продолжительность: 01:38:24
Перевод: дублированный, профессиональный многоголосый, авторский

Режиссер: МакДжи
В ролях: Кэмерон Диас, Дрю Бэрримор, Люси Лью, Билл Мюррей, Сэм Рокуэлл, Келли Линч, Тим Карри, Криспин Гловер, Мэтт ЛеБлан, ЛЛ Кул Джей

О фильме: Ангелы Чарли — суперсекретное элитное спецподразделение, которому доверяют только невыполнимые задания. С помощью новейших технологий, современного оружия, боевых искусств и убийственного женского очарования Ангелы Чарли творят чудеса. Но настоящим испытанием станет лишь это последнее задание...



Качество: BDRip (AVC)
Формат: MKV
Видео: MPEG-4 AVC, 2742 Kбит/с, 1024x426
Аудио 1: русский, AC3, 640 kbps, 6 ch, 48 kHz [дублированный, BD CEE]
Аудио 2: русский, AC3, 448 kbps, 6 ch, 48 kHz [закадровый многоголосый, R5]
Аудио 3: русский, AC3, 640 kbps, 6 ch, 48 kHz [авторский, Сергей Визгунов]
Аудио 4: русский, AC3, 448 kbps, 6 ch, 48 kHz [авторский, Леонид Володарский]
Аудио 5: английский, AC3, 448 kbps, 6 ch, 48 kHz [оригинал]
Субтитры 1: русские (R5)
Субтитры 2: русские (Superbit)
Субтитры 3: английские
Главы/чаптеры
Общее
Уникальный идентификатор : 243895060651761414837080805442021628519 (0xB77C7AE531E5D8248E1DC3D1F5521A67)
Полное имя : D:\Video\Ангелы Чарли.2000.BDRip (AVC) by msltel.mkv
Формат : Matroska
Версия формата : Version 4
Размер файла : 3,69 Гбайт
Продолжительность : 1 ч. 38 м.
Общий поток : 5369 Кбит/сек
Название фильма : Rip by msltel
Дата кодирования : UTC 2019-10-26 08:21:32
Программа кодирования : mkvmerge v8.2.0 ('World of Adventure') 64bit
Библиотека кодирования : libebml v1.3.1 + libmatroska v1.4.2

Видео
Идентификатор : 1
Формат : AVC
Формат/Информация : Advanced Video Codec
Профиль формата : High@L4.1
Настройки формата : CABAC / 9 Ref Frames
Параметр CABAC формата : Да
Параметр RefFrames формата : 9 кадров
Идентификатор кодека : V_MPEG4/ISO/AVC
Продолжительность : 1 ч. 38 м.
Битрейт : 2742 Кбит/сек
Ширина : 1024 пикселя
Высота : 426 пикселей
Соотношение сторон : 2,40:1
Режим частоты кадров : Постоянный
Частота кадров : 23,976 (24000/1001) кадра/сек
Цветовое пространство : YUV
Субдискретизация насыщенности : 4:2:0
Битовая глубина : 8 бит
Тип развёртки : Прогрессивная
Бит/(Пиксели*Кадры) : 0.262
Размер потока : 1,88 Гбайт (51%)
Библиотека кодирования : x264 core 157 r2935 545de2f
Настройки программы : cabac=1 / ref=9 / deblock=1:-2:-2 / analyse=0x3:0x113 / me=umh / subme=11 / psy=1 / psy_rd=1.00:0.15 / mixed_ref=1 / me_range=32 / chroma_me=1 / trellis=2 / 8x8dct=1 / cqm=0 / deadzone=21,11 / fast_pskip=0 / chroma_qp_offset=-3 / threads=6 / lookahead_threads=1 / sliced_threads=0 / nr=0 / decimate=1 / interlaced=0 / bluray_compat=0 / constrained_intra=0 / bframes=8 / b_pyramid=2 / b_adapt=2 / b_bias=0 / direct=1 / weightb=1 / open_gop=0 / weightp=2 / keyint=230 / keyint_min=23 / scenecut=40 / intra_refresh=0 / rc_lookahead=40 / rc=crf / mbtree=1 / crf=18.4 / qcomp=0.60 / qpmin=0 / qpmax=69 / qpstep=4 / vbv_maxrate=50000 / vbv_bufsize=62500 / crf_max=0.0 / nal_hrd=none / filler=0 / ip_ratio=1.40 / aq=1:1.00
Язык : English
Default : Да
Forced : Нет

Аудио #1
Идентификатор : 2
Формат : AC-3
Формат/Информация : Audio Coding 3
Коммерческое название : Dolby Digital
Идентификатор кодека : A_AC3
Продолжительность : 1 ч. 38 м.
Вид битрейта : Постоянный
Битрейт : 640 Кбит/сек
Каналы : 6 каналов
ChannelLayout : L R C LFE Ls Rs
Частота : 48,0 КГц
Частота кадров : 31,250 кадров/сек (1536 SPF)
Метод сжатия : С потерями
Размер потока : 450 Мбайт (12%)
Заголовок : DUB BD CEE
Язык : Russian
ServiceKind/String : Complete Main
Default : Да
Forced : Нет

Аудио #2
Идентификатор : 3
Формат : AC-3
Формат/Информация : Audio Coding 3
Коммерческое название : Dolby Digital
Идентификатор кодека : A_AC3
Продолжительность : 1 ч. 38 м.
Вид битрейта : Постоянный
Битрейт : 448 Кбит/сек
Каналы : 6 каналов
ChannelLayout : L R C LFE Ls Rs
Частота : 48,0 КГц
Частота кадров : 31,250 кадров/сек (1536 SPF)
Метод сжатия : С потерями
Размер потока : 315 Мбайт (8%)
Заголовок : MVO R5
Язык : Russian
ServiceKind/String : Complete Main
Default : Нет
Forced : Нет

Аудио #3
Идентификатор : 4
Формат : AC-3
Формат/Информация : Audio Coding 3
Коммерческое название : Dolby Digital
Идентификатор кодека : A_AC3
Продолжительность : 1 ч. 38 м.
Вид битрейта : Постоянный
Битрейт : 640 Кбит/сек
Каналы : 6 каналов
ChannelLayout : L R C LFE Ls Rs
Частота : 48,0 КГц
Частота кадров : 31,250 кадров/сек (1536 SPF)
Метод сжатия : С потерями
Размер потока : 450 Мбайт (12%)
Заголовок : Сергей Визгунов
Язык : Russian
ServiceKind/String : Complete Main
Default : Нет
Forced : Нет

Аудио #4
Идентификатор : 5
Формат : AC-3
Формат/Информация : Audio Coding 3
Коммерческое название : Dolby Digital
Идентификатор кодека : A_AC3
Продолжительность : 1 ч. 38 м.
Вид битрейта : Постоянный
Битрейт : 448 Кбит/сек
Каналы : 6 каналов
ChannelLayout : L R C LFE Ls Rs
Частота : 48,0 КГц
Частота кадров : 31,250 кадров/сек (1536 SPF)
Метод сжатия : С потерями
Размер потока : 315 Мбайт (8%)
Заголовок : Леонид Володарский
Язык : Russian
ServiceKind/String : Complete Main
Default : Нет
Forced : Нет

Аудио #5
Идентификатор : 6
Формат : AC-3
Формат/Информация : Audio Coding 3
Коммерческое название : Dolby Digital
Идентификатор кодека : A_AC3
Продолжительность : 1 ч. 38 м.
Вид битрейта : Постоянный
Битрейт : 448 Кбит/сек
Каналы : 6 каналов
ChannelLayout : L R C LFE Ls Rs
Частота : 48,0 КГц
Частота кадров : 31,250 кадров/сек (1536 SPF)
Метод сжатия : С потерями
Размер потока : 315 Мбайт (8%)
Заголовок : original
Язык : English
ServiceKind/String : Complete Main
Default : Нет
Forced : Нет

Текст #1
Идентификатор : 7
Формат : UTF-8
Идентификатор кодека : S_TEXT/UTF8
Идентификатор кодека/Информация : UTF-8 Plain Text
Продолжительность : 1 ч. 31 м.
Битрейт : 72 бит/сек
ElementCount : 895
Размер потока : 48,7 Кбайт (0%)
Заголовок : русские R5
Язык : Russian
Default : Нет
Forced : Нет

Текст #2
Идентификатор : 8
Формат : UTF-8
Идентификатор кодека : S_TEXT/UTF8
Идентификатор кодека/Информация : UTF-8 Plain Text
Продолжительность : 1 ч. 31 м.
Битрейт : 77 бит/сек
ElementCount : 936
Размер потока : 52,3 Кбайт (0%)
Заголовок : русские Superbit
Язык : Russian
Default : Нет
Forced : Нет

Текст #3
Идентификатор : 9
Формат : UTF-8
Идентификатор кодека : S_TEXT/UTF8
Идентификатор кодека/Информация : UTF-8 Plain Text
Продолжительность : 1 ч. 31 м.
Битрейт : 38 бит/сек
ElementCount : 865
Размер потока : 25,9 Кбайт (0%)
Заголовок : английские
Язык : English
Default : Нет
Forced : Нет

Меню
00:00:00.000 : en:Chapter 01
00:05:23.448 : en:Chapter 02
00:11:30.606 : en:Chapter 03
00:18:14.092 : en:Chapter 04
00:23:14.601 : en:Chapter 05
00:28:45.473 : en:Chapter 06
00:35:33.548 : en:Chapter 07
00:39:43.672 : en:Chapter 08
00:48:38.749 : en:Chapter 09
00:52:18.677 : en:Chapter 10
00:59:11.464 : en:Chapter 11
01:03:02.737 : en:Chapter 12
01:10:10.164 : en:Chapter 13
01:15:42.079 : en:Chapter 14
01:20:49.386 : en:Chapter 15
01:23:20.078 : en:Chapter 16
pb.wtf



Скачать Ангелы Чарли через торрент https://d.radikal.ru/d39/1910/ce/2b136224631f.jpg Скачать фильм Ангелы Чарли через торрент бесплантно в хорошем качестве О фильме: Ангелы Чарли — суперсекретное элитное спецподразделение, которому доверяют только невыполнимые задания. С помощью новейших ... 10 10 1
Торрент: Зарегистрирован [2019-10-26 10:42] · скачан: 6 раз
Статус: √ проверено
Размер: 3.69 GB
Как cкачать? Как скачать Ангелы Чарли через торрент | qTorrent

28-11-2019 20:33  

Отключить всю рекламу на сайте

    Дорогой пользователь! Огромная просьба, поблагодарите релизера, оцените раздачу и оставьте свои комментарий, если Вы скачали Ангелы Чарли через торрент бесплатно! Внесите свою лепту в развитие PiratBit!
    Комментировать посты могут только пользователи прошедшие не сложную регистрацию
    Показать сообщения:    

    Ангелы Чарли через торрент
    Скачать бесплатно Ангелы Чарли
    Ангелы Чарли скачать торрент
    Ангелы Чарли смотреть онлайн
    Cкачать фильм Ангелы Чарли бесплатно
    Ангелы Чарли скачать торрент в хорошем качестве
    Ангелы Чарли смотреть онлайн бесплатно в хорошем качестве


    Вы не можете начинать темы
    Вы не можете отвечать на сообщения
    Вы не можете редактировать свои сообщения
    Вы не можете удалять свои сообщения
    Вы не можете голосовать в опросах
    Вы не можете прикреплять файлы к сообщениям
    Вы можете скачивать файлы