Всегда рабочее зеркало без VPN и Proxy просто перед .vidak.icu напиши любое слово или цифру, Пример http://o0oj.vidak.icu

MVO

2 сезон

2 сезон

1

1 сезон

iTunes

2 сезон

13

1 сезон

Deluxe

pack

Рекомендуем

Пиратка

30

ВАЖНО

RePack

MK11

RePack

jed

RePack

fifa19

RePack

RDR2

RePack

NEED FOR SPEED™ PAYBACK

Кинопоиск HD

6 сезон

 Острые козырьки 6 сезон

Все сериалы

все сериалы на PB.wtf

RePack

FAR CRY 5

Anonymous, нам критически не хватает 5601 руб. на оплату серверов и переферии за Апрель, помоги нам пожалуйста, вся надежда только на тебя. В благодарность мы отключим тебе всю рекламу на сайте!

×
  
Magnet ссылка

Рим полный насилия / Roma A Mano Armata (Умберто Ленци) [1976, боевик, триллер, драма, криминал, BDRip 1080p by msltel] AVO pb.wtf

Рим полный насилия через торрент pb.wtf

Размер: 9.88 GB | Добавлен: 2 года 6 мес. назад | Торрент скачан:0 раз
Смотреть онлайн Рим полный насилия | Скачать    Ребята, помогите собрать деньги на оплату серверов!!!

31-10-2019 06:13 Рим полный насилия Скачать торрент  

Название: Рим полный насилия
Оригинальное название: Roma A Mano Armata
Год выпуска: 1976
Страна: Италия
Жанр: боевик, триллер, драма, криминал
Продолжительность: 01:33:53
Перевод: авторский

Режиссер: Умберто Ленци
В ролях: Маурицио Мерли, Артур Кеннеди, Джампьеро Альбертини, Иван Рассимов, Бьяджо Пеллигра, Томас Милиан, Альдо Барберито, Стефано Патрици, Лучано Пигоцци, Лучано Катеначчи

О фильме: В Риме бесчинствует банда Феррендера. Комиссар Танци, сторонник жёстких мер, всеми силами пытается её обезвредить и поймать главаря. Его начальник комиссар Руини придерживается буквы закона и печётся об имидже полиции. Он постоянно сдерживает Танци. А в городе тем временем происходят новые грабежи и убийства...



Качество: BDRip 1080p
Формат: MKV
Видео: MPEG-4 AVC, 13.4 Mбит/с, 1920x804, 23.976 кадр/с
Аудио 1: русский, AC3, 192 kbps, 2 ch, 48 kHz [авторский, Вадим Белов]
Аудио 2: итальянский, DTS, 1509 kbps, 2 ch, 48 kHz [оригинал]
Субтитры: английские
Главы/чаптеры
Общее
Уникальный идентификатор : 208267937377823048427017999314898028810 (0x9CAEF219BBEF470FBCD8ED7E837E890A)
Полное имя : D:\Video\Рим полный насилия.1976.BDRip 1080p by msltel.mkv
Формат : Matroska
Версия формата : Version 4
Размер файла : 9,88 Гбайт
Продолжительность : 1 ч. 33 м.
Общий поток : 15,1 Мбит/сек
Название фильма : Rip by msltel
Дата кодирования : UTC 2019-10-31 02:09:12
Программа кодирования : mkvmerge v8.2.0 ('World of Adventure') 64bit
Библиотека кодирования : libebml v1.3.1 + libmatroska v1.4.2

Видео
Идентификатор : 1
Формат : AVC
Формат/Информация : Advanced Video Codec
Профиль формата : High@L4.1
Настройки формата : CABAC / 4 Ref Frames
Параметр CABAC формата : Да
Параметр RefFrames формата : 4 кадра
Идентификатор кодека : V_MPEG4/ISO/AVC
Продолжительность : 1 ч. 33 м.
Битрейт : 13,4 Мбит/сек
Ширина : 1920 пикселей
Высота : 804 пикселя
Соотношение сторон : 2,40:1
Режим частоты кадров : Постоянный
Частота кадров : 23,976 (24000/1001) кадра/сек
Цветовое пространство : YUV
Субдискретизация насыщенности : 4:2:0
Битовая глубина : 8 бит
Тип развёртки : Прогрессивная
Бит/(Пиксели*Кадры) : 0.361
Размер потока : 8,76 Гбайт (89%)
Библиотека кодирования : x264 core 157 r2935 545de2f
Настройки программы : cabac=1 / ref=4 / deblock=1:-2:-2 / analyse=0x3:0x113 / me=umh / subme=11 / psy=1 / psy_rd=1.00:0.15 / mixed_ref=1 / me_range=32 / chroma_me=1 / trellis=2 / 8x8dct=1 / cqm=0 / deadzone=21,11 / fast_pskip=0 / chroma_qp_offset=-3 / threads=6 / lookahead_threads=1 / sliced_threads=0 / nr=0 / decimate=1 / interlaced=0 / bluray_compat=0 / constrained_intra=0 / bframes=12 / b_pyramid=2 / b_adapt=2 / b_bias=0 / direct=1 / weightb=1 / open_gop=0 / weightp=2 / keyint=230 / keyint_min=23 / scenecut=40 / intra_refresh=0 / rc_lookahead=40 / rc=crf / mbtree=1 / crf=20.0 / qcomp=0.60 / qpmin=0 / qpmax=69 / qpstep=4 / vbv_maxrate=50000 / vbv_bufsize=62500 / crf_max=0.0 / nal_hrd=none / filler=0 / ip_ratio=1.40 / aq=1:1.00
Язык : Italian
Default : Да
Forced : Нет

Аудио #1
Идентификатор : 2
Формат : AC-3
Формат/Информация : Audio Coding 3
Коммерческое название : Dolby Digital
Идентификатор кодека : A_AC3
Продолжительность : 1 ч. 33 м.
Вид битрейта : Постоянный
Битрейт : 192 Кбит/сек
Каналы : 2 канала
ChannelLayout : L R
Частота : 48,0 КГц
Частота кадров : 31,250 кадров/сек (1536 SPF)
Метод сжатия : С потерями
Размер потока : 129 Мбайт (1%)
Заголовок : Вадим Белов
Язык : Russian
ServiceKind/String : Complete Main
Default : Да
Forced : Нет

Аудио #2
Идентификатор : 3
Формат : DTS
Формат/Информация : Digital Theater Systems
Идентификатор кодека : A_DTS
Продолжительность : 1 ч. 33 м.
Вид битрейта : Постоянный
Битрейт : 1509 Кбит/сек
Каналы : 2 канала
ChannelLayout : L R
Частота : 48,0 КГц
Частота кадров : 93,750 кадра/сек (512 SPF)
Битовая глубина : 24 бит
Метод сжатия : С потерями
Размер потока : 1013 Мбайт (10%)
Заголовок : original
Язык : Italian
Default : Нет
Forced : Нет

Текст
Идентификатор : 4
Формат : UTF-8
Идентификатор кодека : S_TEXT/UTF8
Идентификатор кодека/Информация : UTF-8 Plain Text
Продолжительность : 1 ч. 29 м.
Битрейт : 53 бит/сек
ElementCount : 1134
Размер потока : 35,3 Кбайт (0%)
Заголовок : английские
Язык : English
Default : Нет
Forced : Нет

Меню
00:00:00.000 : :Глава 01
00:02:13.550 : :Глава 02
00:04:23.763 : :Глава 03
00:07:11.848 : :Глава 04
00:09:28.442 : :Глава 05
00:11:28.270 : :Глава 06
00:13:30.518 : :Глава 07
00:17:50.652 : :Глава 08
00:25:43.875 : :Глава 09
00:32:37.205 : :Глава 10
00:35:03.643 : :Глава 11
00:41:01.792 : :Глава 12
00:45:45.993 : :Глава 13
00:49:24.503 : :Глава 14
00:53:25.952 : :Глава 15
00:59:41.452 : :Глава 16
01:03:51.744 : :Глава 17
01:06:04.377 : :Глава 18
01:08:50.876 : :Глава 19
01:15:55.300 : :Глава 20
01:18:11.395 : :Глава 21
01:23:33.925 : :Глава 22
01:25:44.931 : :Глава 23
01:32:41.097 : :Глава 24
pb.wtf



Скачать Рим полный насилия через торрент https://c.radikal.ru/c38/1910/cd/42e648c50d51.jpg Скачать, смотреть онлайн Рим полный насилия бесплантно в хорошем качестве О фильме: В Риме бесчинствует банда Феррендера. Комиссар Танци, сторонник жёстких мер, всеми силами пытается её обезвредить и поймать ... 5 10 1
Торрент: Зарегистрирован [2019-10-31 06:13] · скачан: 0 раз
Статус: √ проверено
Размер: 9.88 GB
Как cкачать? Как скачать Рим полный насилия через торрент | UTorrent

% Раздел Тема Автор DL S | L
Фильмы с авторской озвучкой [ 3.08 GB ] Рим полный насилия / Roma A Mano Armata [1976 BDRip 720p by msltel] AVO msltel Скачать
1 | 0
Фильмы до 2000 г. [ 1.72 GB ] Рим полный насилия / Roma A Mano Armata [1976 BDRip by msltel] AVO msltel Скачать
1 | 0

28-11-2019 20:33  

Отключить всю рекламу на сайте

    Дорогой пользователь! Огромная просьба, поблагодарите релизера, оцените раздачу и оставьте свои комментарий, если Вы скачали Рим полный насилия через торрент бесплатно!
    Комментировать посты могут только пользователи прошедшие не сложную регистрацию
    Показать сообщения:    

    Рим полный насилия через торрент
    Скачать бесплатно Рим полный насилия
    Рим полный насилия скачать торрент
    Рим полный насилия смотреть онлайн
    Cкачать фильм Рим полный насилия бесплатно
    Рим полный насилия скачать торрент в хорошем качестве
    Рим полный насилия смотреть онлайн бесплатно в хорошем качестве


    Вы не можете начинать темы
    Вы не можете отвечать на сообщения
    Вы не можете редактировать свои сообщения
    Вы не можете удалять свои сообщения
    Вы не можете голосовать в опросах
    Вы не можете прикреплять файлы к сообщениям
    Вы можете скачивать файлы