Ссылка на приватное зеркало всего за 1$. Внимание количество ограничено!!!

OK

1+1

iTunes

мы

OK

1

WEB-DLRip

Джокер

Пифагор

Ведьмак / The Witcher сериал

iTunes

ПШазам

ОК

Оно 2

iTunes

30
pack

Вам бонус

ВАЖНО

!!Акция!!

Alien_RageХит недели

RePack

Resident Evil 21

ИГРА 18+

pack

RePack

jed

RePack

fifa19

RePack

Assassins Creed: Odyssey

RePack

NEED FOR SPEED™ PAYBACK

4 сезон

9 сезон

Бесстыжие 9 сезон

Все сериалы

все сериалы на PB.wtf

RePack

FAR CRY 5
  

Новый мировой беспорядок / New World Disorder (Ричард Спенс / Richard Spence) [1999, криминал, боевик, киберпанк, DVDRip-AVC] [DVO] (Союз) pb.wtf

Новый мировой беспорядок через торрент pb.wtf

Размер: 2.06 GB | Добавлен: 2 мес. 17 д. назад | Торрент скачан:8 раз
Скачать  

08-11-2019 16:02 Новый мировой беспорядок Скачать торрент  



Новый мировой беспорядок / New World Disorder

Страна: США, Люксембург
Жанр: криминал, боевик, киберпанк
Год выпуска: 1999
Продолжительность: 01:29:59
Перевод: Профессиональный (двухголосый закадровый) Союз
Субтитры: русские
Режиссер: Ричард Спенс / Richard Spence
В ролях: Рутгер Хауэр, Эндрю МакКарти, Тара Фитцджеральд, Хари Диллон, Алан Рэглэнд, Йен Батчер, Брайан Ван Кэмп, Энтони Уоррен, Мартин МакДугалл, Николас Пиннок

Описание: В самом центре знаменитой Силиконовой Долины неслыханной скандал — прямо из офиса компании, занимающейся разработкой новейшей программы безопасности компьютерных систем, похищены сверхсекретные микрочипы. Все сотрудники фирмы убиты, и лишь одному чудом удалось остаться в живых. Компьютерный хакер-пират Курт Бишоп, организовавший этот дерзкий налет, рассчитывает получить денежный куш, в противном случае он выведет из строя жизненно важные компьютерные сети. На поиски Бишопа и его головорезов брошены лучшие силы полиции и ФБР; детектив-ветеран Дэвид Маркс, прозванный патологоанатомом за свою бульдожью хватку, и агент Кристина Паддок, эксперт по компьютерам и очаровательная молодая женщина. При первом знакомстве у новоявленных партнеров возникает сильнейшая аллергия друг на друга, но ведь лиха беда — начало?

rating

Качество видео: DVDRip-AVC
Формат видео: MKV

Видео: 702x576 (4:3) @ 750x576, 25 fps, AVC, ~2 575 Kbps, 0.255 bits/pixel
Аудио: 48.0 KHz, AC3, 2 ch, ~256 Kbps
Аудио 2: 48 kHz, AC3 Dolby Digital, 3/2 (L,C,R,l,r) + LFE ch, ~448 kbps RUS
Формат субтитров: softsub (SRT)



General
Unique ID : 188664078774950704994548690580607568564 (0x8DEF613F710864288F3E3DE99CFF8AB4)
Complete name : D:\ New World Disorder 1999\Новый мировой беспорядок 1999 (1).mkv
Format : Matroska
Format version : Version 2
File size : 2.02 GiB
Duration : 1h 29mn
Overall bit rate : 3 214 Kbps
Encoded date : UTC 2019-11-01 18:34:17
Writing application : mkvmerge v4.8.0 ('I Got The...') сборка от May 24 2011 03:12:58
Writing library : libebml v1.2.0 + libmatroska v1.1.0
DURATION : 01:27:13.679000000
NUMBER_OF_FRAMES : 685
NUMBER_OF_BYTES : 53739
_STATISTICS_WRITING_APP : mkvmerge v8.5.2 ('Crosses') 64bit
_STATISTICS_WRITING_DATE_UTC : 2015-12-20 19:50:23
_STATISTICS_TAGS : BPS DURATION NUMBER_OF_FRAMES NUMBER_OF_BYTES

Video
ID : 1
Format : AVC
Format/Info : Advanced Video Codec
Format profile : High@L4.1
Format settings, CABAC : Yes
Format settings, ReFrames : 10 frames
Codec ID : V_MPEG4/ISO/AVC
Duration : 1h 29mn
Bit rate : 2 575 Kbps
Width : 702 pixels
Height : 576 pixels
Display aspect ratio : 4:3
Frame rate mode : Constant
Frame rate : 25.000 fps
Color space : YUV
Chroma subsampling : 4:2:0
Bit depth : 8 bits
Scan type : Progressive
Bits/(Pixel*Frame) : 0.255
Stream size : 1.58 GiB (78%)
Title : New World Disorder
Writing library : x264 core 148 r2638 7599210
Encoding settings : cabac=1 / ref=10 / deblock=1:1:1 / analyse=0x3:0x113 / me=umh / subme=11 / psy=1 / psy_rd=1.00:0.15 / mixed_ref=1 / me_range=32 / chroma_me=1 / trellis=2 / 8x8dct=1 / cqm=0 / deadzone=21,11 / fast_pskip=0 / chroma_qp_offset=-3 / threads=6 / lookahead_threads=1 / sliced_threads=0 / nr=0 / decimate=1 / interlaced=0 / bluray_compat=0 / constrained_intra=0 / bframes=12 / b_pyramid=2 / b_adapt=2 / b_bias=0 / direct=3 / weightb=1 / open_gop=0 / weightp=2 / keyint=250 / keyint_min=25 / scenecut=40 / intra_refresh=0 / rc_lookahead=45 / rc=2pass / mbtree=1 / bitrate=2575 / ratetol=1.0 / qcomp=0.60 / qpmin=0 / qpmax=69 / qpstep=4 / cplxblur=20.0 / qblur=0.5 / ip_ratio=1.40 / aq=1:1.00
Default : Yes
Forced : No

Audio #1
ID : 2
Format : AC-3
Format/Info : Audio Coding 3
Mode extension : CM (complete main)
Format settings, Endianness : Big
Codec ID : A_AC3
Duration : 1h 29mn
Bit rate mode : Constant
Bit rate : 256 Kbps
Channel(s) : 2 channels
Channel positions : Front: L R
Sampling rate : 48.0 KHz
Bit depth : 16 bits
Compression mode : Lossy
Delay relative to video : 4ms
Stream size : 124 MiB (6%)
Title : DVO (Союз/VHS)
Language : Russian
Default : Yes
Forced : No

Audio #2
ID : 3
Format : AC-3
Format/Info : Audio Coding 3
Mode extension : CM (complete main)
Format settings, Endianness : Big
Codec ID : A_AC3
Duration : 1h 29mn
Bit rate mode : Constant
Bit rate : 448 Kbps
Channel(s) : 6 channels
Channel positions : Front: L C R, Side: L R, LFE
Sampling rate : 48.0 KHz
Bit depth : 16 bits
Compression mode : Lossy
Stream size : 288 MiB (14%)
Title : Original
Language : English
Default : No
Forced : No

Text
ID : 4
Format : UTF-8
Codec ID : S_TEXT/UTF8
Codec ID/Info : UTF-8 Plain Text
Title : Full
Language : Russian
Default : No
Forced : No
скриншот  скриншот  скриншот  
pb.wtf



Скачать Новый мировой беспорядок через торрент https://i4.imageban.ru/out/2019/10/31/bcd4fd3b7ccaf73e366e0f52c3e4b1a0.jpg Скачать фильм Новый мировой беспорядок через торрент бесплантно в хорошем качестве Описание: В самом центре знаменитой Силиконовой Долины неслыханной скандал — прямо из офиса компании, занимающейся разработкой новейшей ... 10 10 1
Торрент: Зарегистрирован [2019-11-08 16:02] · скачан: 8 раз
Статус: √ проверено
Размер: 2.06 GB
Как cкачать? Как скачать Новый мировой беспорядок через торрент | qTorrent

28-11-2019 20:33  

Отключить всю рекламу на сайте

    Дорогой пользователь! Огромная просьба, поблагодарите релизера, оцените раздачу и оставьте свои комментарий, если Вы скачали Новый мировой беспорядок через торрент бесплатно! Внесите свою лепту в развитие PiratBit!
    Комментировать посты могут только пользователи прошедшие не сложную регистрацию
    Показать сообщения:    

    Новый мировой беспорядок через торрент
    Скачать бесплатно Новый мировой беспорядок
    Новый мировой беспорядок скачать торрент
    Новый мировой беспорядок смотреть онлайн
    Cкачать фильм Новый мировой беспорядок бесплатно
    Новый мировой беспорядок скачать торрент в хорошем качестве
    Новый мировой беспорядок смотреть онлайн бесплатно в хорошем качестве


    Вы не можете начинать темы
    Вы не можете отвечать на сообщения
    Вы не можете редактировать свои сообщения
    Вы не можете удалять свои сообщения
    Вы не можете голосовать в опросах
    Вы не можете прикреплять файлы к сообщениям
    Вы можете скачивать файлы