Ссылка на приватное зеркало всего за 1$. Внимание количество ограничено!!!

OK

1+1

iTunes

мы

OK

1

WEB-DLRip

Джокер

Пифагор

Ведьмак / The Witcher сериал

iTunes

ПШазам

ОК

Оно 2

iTunes

30
pack

Вам бонус

ВАЖНО

!!Акция!!

Alien_RageХит недели

RePack

Resident Evil 21

ИГРА 18+

pack

RePack

jed

RePack

fifa19

RePack

Assassins Creed: Odyssey

RePack

NEED FOR SPEED™ PAYBACK

4 сезон

9 сезон

Бесстыжие 9 сезон

Все сериалы

все сериалы на PB.wtf

RePack

FAR CRY 5
  

Первая сила / The First Power (Роберт Резникофф) [1990, ужасы, триллер, криминал, BDRip (AVC) by msltel] 2 x DVO, 2 x AVO pb.wtf

Первая сила через торрент pb.wtf

Размер: 2.65 GB | Добавлен: 2 мес. 16 д. назад | Торрент скачан:11 раз
Скачать  

11-11-2019 06:20 Первая сила Скачать торрент  

Название: Первая сила
Оригинальное название: The First Power
Год выпуска: 1990
Страна: США
Жанр: ужасы, триллер, криминал
Продолжительность: 01:38:34
Перевод: профессиональный двухголосый, авторский

Режиссер: Роберт Резникофф
В ролях: Лу Даймонд Филлипс, Трэйси Гриффит, Джефф Кобер, Майкелти Уильямсон, Элизабет Арлен, Деннис Липском, Кармен Ардженциано, Джулианна МакКарти, Нада Деспотович, Клэйтон Ланди, Хансфорд Роу, Филип Эбботт, Дэвид Гэйл, Дж. Патрик МакНамара, Лиза Спечт, Марк Бринглсон, Уильям Фэйр, Брайан Либби, Майкл МакНаб, Дэвид Дж. Партингтон

О фильме: После долгой охоты детектив Расселл Логан наконец-то арестовывает зверского ритуального убийцу и наблюдает за его казнью в Сан Квентине. Однако, когда ритуальные убийства начинают происходить снова, у Логана появляются видения, и он ищет помощи у экстрасенса. Вместе они обнаруживают, что ритуальный убийца — это один из учеников Сатаны, обладающий силой перевоплощения в тела других людей. Теперь Логан должен приступить к поискам убийцы снова, не зная где он, и, что более ужасное, в кого он перевоплотился на этот раз...



Качество: BDRip (AVC)
Формат: MKV
Видео: MPEG-4 AVC, 2860 Кбит/с, 1024x554
Аудио 1: русский, AC3, 192 kbps, 2 ch, 48 kHz [закадровый двухголосый, HTB+]
Аудио 2: русский, AC3, 192 kbps, 2 ch, 48 kHz [закадровый двухголосый, Светлана Репетина и Игорь Добряков]
Аудио 3: русский, AC3, 192 kbps, 2 ch, 48 kHz [авторский, Андрей Гаврилов]
Аудио 4: русский, AC3, 224 kbps, 2 ch, 48 kHz [авторский, Михаил Иванов VHS]
Аудио 5: английский, AC3, 192 kbps, 2 ch, 48 kHz [оригинал]
Субтитры: английские
Главы/чаптеры
Общее
Уникальный идентификатор : 175320185777058520362874613335776957264 (0x83E570874A29E08BB721B193B5361350)
Полное имя : D:\Video\Первая сила.1990.BDRip (AVC) by msltel.mkv
Формат : Matroska
Версия формата : Version 4
Размер файла : 2,65 Гбайт
Продолжительность : 1 ч. 38 м.
Общий поток : 3855 Кбит/сек
Название фильма : Rip by msltel
Дата кодирования : UTC 2019-11-10 12:47:44
Программа кодирования : mkvmerge v8.2.0 ('World of Adventure') 64bit
Библиотека кодирования : libebml v1.3.1 + libmatroska v1.4.2

Видео
Идентификатор : 1
Формат : AVC
Формат/Информация : Advanced Video Codec
Профиль формата : High@L4.1
Настройки формата : CABAC / 9 Ref Frames
Параметр CABAC формата : Да
Параметр RefFrames формата : 9 кадров
Идентификатор кодека : V_MPEG4/ISO/AVC
Продолжительность : 1 ч. 38 м.
Битрейт : 2860 Кбит/сек
Ширина : 1024 пикселя
Высота : 554 пикселя
Соотношение сторон : 1,85:1
Режим частоты кадров : Постоянный
Частота кадров : 23,976 (24000/1001) кадра/сек
Цветовое пространство : YUV
Субдискретизация насыщенности : 4:2:0
Битовая глубина : 8 бит
Тип развёртки : Прогрессивная
Бит/(Пиксели*Кадры) : 0.210
Размер потока : 1,97 Гбайт (74%)
Библиотека кодирования : x264 core 157 r2935 545de2f
Настройки программы : cabac=1 / ref=9 / deblock=1:-2:-2 / analyse=0x3:0x113 / me=umh / subme=11 / psy=1 / psy_rd=1.00:0.15 / mixed_ref=1 / me_range=32 / chroma_me=1 / trellis=2 / 8x8dct=1 / cqm=0 / deadzone=21,11 / fast_pskip=0 / chroma_qp_offset=-3 / threads=6 / lookahead_threads=1 / sliced_threads=0 / nr=0 / decimate=1 / interlaced=0 / bluray_compat=0 / constrained_intra=0 / bframes=13 / b_pyramid=2 / b_adapt=2 / b_bias=0 / direct=1 / weightb=1 / open_gop=0 / weightp=2 / keyint=230 / keyint_min=23 / scenecut=40 / intra_refresh=0 / rc_lookahead=40 / rc=crf / mbtree=1 / crf=20.0 / qcomp=0.60 / qpmin=0 / qpmax=69 / qpstep=4 / vbv_maxrate=50000 / vbv_bufsize=62500 / crf_max=0.0 / nal_hrd=none / filler=0 / ip_ratio=1.40 / aq=1:1.00
Язык : English
Default : Да
Forced : Нет

Аудио #1
Идентификатор : 2
Формат : AC-3
Формат/Информация : Audio Coding 3
Коммерческое название : Dolby Digital
Идентификатор кодека : A_AC3
Продолжительность : 1 ч. 38 м.
Вид битрейта : Постоянный
Битрейт : 192 Кбит/сек
Каналы : 2 канала
ChannelLayout : L R
Частота : 48,0 КГц
Частота кадров : 31,250 кадров/сек (1536 SPF)
Метод сжатия : С потерями
Размер потока : 135 Мбайт (5%)
Заголовок : DVO HTB+
Язык : Russian
ServiceKind/String : Complete Main
Default : Да
Forced : Нет

Аудио #2
Идентификатор : 3
Формат : AC-3
Формат/Информация : Audio Coding 3
Коммерческое название : Dolby Digital
Идентификатор кодека : A_AC3
Продолжительность : 1 ч. 38 м.
Вид битрейта : Постоянный
Битрейт : 192 Кбит/сек
Каналы : 2 канала
ChannelLayout : L R
Частота : 48,0 КГц
Частота кадров : 31,250 кадров/сек (1536 SPF)
Метод сжатия : С потерями
Размер потока : 135 Мбайт (5%)
Заголовок : DVO Светлана Репетина и Игорь Добряков
Язык : Russian
ServiceKind/String : Complete Main
Default : Нет
Forced : Нет

Аудио #3
Идентификатор : 4
Формат : AC-3
Формат/Информация : Audio Coding 3
Коммерческое название : Dolby Digital
Идентификатор кодека : A_AC3
Продолжительность : 1 ч. 38 м.
Вид битрейта : Постоянный
Битрейт : 192 Кбит/сек
Каналы : 2 канала
ChannelLayout : L R
Частота : 48,0 КГц
Частота кадров : 31,250 кадров/сек (1536 SPF)
Метод сжатия : С потерями
Размер потока : 135 Мбайт (5%)
Заголовок : Андрей Гаврилов
Язык : Russian
ServiceKind/String : Complete Main
Default : Нет
Forced : Нет

Аудио #4
Идентификатор : 5
Формат : AC-3
Формат/Информация : Audio Coding 3
Коммерческое название : Dolby Digital
Идентификатор кодека : A_AC3
Продолжительность : 1 ч. 38 м.
Вид битрейта : Постоянный
Битрейт : 224 Кбит/сек
Каналы : 2 канала
ChannelLayout : L R
Частота : 48,0 КГц
Частота кадров : 31,250 кадров/сек (1536 SPF)
Метод сжатия : С потерями
Размер потока : 158 Мбайт (6%)
Заголовок : Михаил Иванов VHS
Язык : Russian
ServiceKind/String : Complete Main
Default : Нет
Forced : Нет

Аудио #5
Идентификатор : 6
Формат : AC-3
Формат/Информация : Audio Coding 3
Коммерческое название : Dolby Digital
Идентификатор кодека : A_AC3
Продолжительность : 1 ч. 38 м.
Вид битрейта : Постоянный
Битрейт : 192 Кбит/сек
Каналы : 2 канала
ChannelLayout : L R
Частота : 48,0 КГц
Частота кадров : 31,250 кадров/сек (1536 SPF)
Метод сжатия : С потерями
Размер потока : 135 Мбайт (5%)
Заголовок : original
Язык : English
ServiceKind/String : Complete Main
Default : Нет
Forced : Нет

Текст
Идентификатор : 7
Формат : UTF-8
Идентификатор кодека : S_TEXT/UTF8
Идентификатор кодека/Информация : UTF-8 Plain Text
Продолжительность : 1 ч. 34 м.
Битрейт : 36 бит/сек
ElementCount : 1071
Размер потока : 25,4 Кбайт (0%)
Заголовок : английские
Язык : English
Default : Нет
Forced : Нет

Меню
00:00:00.000 : en:00:00:00.000
00:09:29.319 : en:00:09:29.319
00:17:31.550 : en:00:17:31.550
00:31:00.317 : en:00:31:00.317
00:44:52.315 : en:00:44:52.315
00:56:40.772 : en:00:56:40.772
01:08:05.707 : en:01:08:05.707
01:21:20.375 : en:01:21:20.375
pb.wtf



Скачать Первая сила через торрент https://b.radikal.ru/b42/1911/df/ff1d24d57f9e.jpg Скачать фильм Первая сила через торрент бесплантно в хорошем качестве О фильме: После долгой охоты детектив Расселл Логан наконец-то арестовывает зверского ритуального убийцу и наблюдает за его казнью в Сан ... 5 10 1
Торрент: Зарегистрирован [2019-11-11 06:20] · скачан: 11 раз
Статус: √ проверено
Размер: 2.65 GB
Как cкачать? Как скачать Первая сила через торрент | qTorrent

% Раздел Тема Автор DL S | L
Фильмы [HD 720p, 1080p] (Хороший звук DUB, MVO) [ 11.56 GB ] Первая сила / The First Power [1990 BDRip 1080p by msltel] 2 x DVO 2 x AVO msltel Скачать
1 | 0
Фильмы [HD 720p, 1080p] (Хороший звук DUB, MVO) [ 4.54 GB ] Первая сила / The First Power [1990 BDRip 720p by msltel] 2 x DVO 2 x AVO msltel Скачать
1 | 0

28-11-2019 20:33  

Отключить всю рекламу на сайте


    Дорогой пользователь! Огромная просьба, поблагодарите релизера, оцените раздачу и оставьте свои комментарий, если Вы скачали Первая сила через торрент бесплатно! Внесите свою лепту в развитие PiratBit!
    Комментировать посты могут только пользователи прошедшие не сложную регистрацию
    Показать сообщения:    

    Первая сила через торрент
    Скачать бесплатно Первая сила
    Первая сила скачать торрент
    Первая сила смотреть онлайн
    Cкачать фильм Первая сила бесплатно
    Первая сила скачать торрент в хорошем качестве
    Первая сила смотреть онлайн бесплатно в хорошем качестве


    Вы не можете начинать темы
    Вы не можете отвечать на сообщения
    Вы не можете редактировать свои сообщения
    Вы не можете удалять свои сообщения
    Вы не можете голосовать в опросах
    Вы не можете прикреплять файлы к сообщениям
    Вы можете скачивать файлы