Ссылка на приватное зеркало нашего сайта всего за 1$. Внимание количество ограничено!!!

2 сезон

iTunes

1 сезон

1

2 сезон

2 сезон

iTunes

1 сезон

RePack

30

Новинка

ВАЖНО

ИГРА 18+

pack

RePack

MK11
pack

Забери бонус

RePack

jed

!!Акция!!

Alien_Rage

RePack

fifa19

RePack

Assassins Creed: Odyssey

RePack

NEED FOR SPEED™ PAYBACK

4 сезон

9 сезон

Бесстыжие 9 сезон

Все сериалы

все сериалы на PB.wtf

RePack

FAR CRY 5
  

Хорошая жена / Сезон: 1 / Серии: 1-20 из 20 (Станислав Либин) [2019, Драма, HDTVRip 720p] pb.wtf

Хорошая жена через торрент pb.wtf

Размер: 25.25 GB | Добавлен: 1 год назад | Торрент скачан:19 раз
Скачать  

13-11-2019 07:19 Хорошая жена Скачать торрент  

Хорошая жена
Год выпуска: 2019
Страна: Россия
Жанр: Драма
Продолжительность: ~ 00:46:00
Субтитры: отсутствуют

Режиссер: Станислав Либин



В ролях: Александра Урсуляк, Александр Домогаров, Дмитрий Миллер, Марина Зудина, Сабина Ахмедова, Наиль Абдрахманов, Сергей Погосян, Алексей Барабаш, Галина Польских, Арсений Гусев, Елизавета Зарубина, Александр Коротков (II), Зоя Лирова, Ксения Самойлова, Анастасия Христьян, Марина Кондратьева, Даниил Эльдаров, Валерий Новиков, Алла Иванцова, Елизавета Лотова, Сергей Черданцев

Описание: Действие российской адаптации популярного американского телесериала разворачивается в Санкт-Петербурге. В течение одного дня жизнь Алисы меняется. Её муж, прокурор ленинградской области, Пётр Филиппов становится героем сразу нескольких громких скандалов. Репутация, которую он так долго выстраивал оказалась разрушена. Алиса с детьми переезжает в простую, но просторную квартиру свекрови в центре Питера. Теперь она должна сама обеспечивать всю семью. Спустя годы Алиса возвращается к адвокатской карьере и начинает работу в юридической фирме своего университетского друга Виталия Калинина.

Качество: HDTVRip 720p
Формат: MKV

Видео: 1280x720, (16:9), 25 fps, AVC MPEG-4 (x264), High@L4.1 ~ 3500 kbps , 0.152 bit/pixel
Аудио: 48 kHz, AC3, 2/0 (L,R) ch, ~192 kbps
скриншот  скриншот  скриншот  скриншот  

Общее
Уникальный идентификатор : 243151354456466552172443269894457690709 (0xB6ED3F5950DE5BB1B65B650A28F68A55)
Полное имя : C:\Horoshaya.Zhena.2019.HDTVRip (720p)\01.Horoshaya.Zhena.2019.HDTVRip (720p).mkv
Формат : Matroska
Версия формата : Version 4
Размер файла : 1,30 Гбайт
Продолжительность : 50 м. 17 с.
Общий поток : 3694 Кбит/сек
Дата кодирования : UTC 2019-11-12 21:32:33
Программа кодирования : mkvmerge v8.3.0 ('Over the Horizon') 64bit
Библиотека кодирования : libebml v1.3.1 + libmatroska v1.4.2

Видео
Идентификатор : 1
Формат : AVC
Формат/Информация : Advanced Video Codec
Профиль формата : High@L4.1
Настройки формата : CABAC / 8 Ref Frames
Параметр CABAC формата : Да
Параметр RefFrames формата : 8 кадров
Идентификатор кодека : V_MPEG4/ISO/AVC
Продолжительность : 50 м. 17 с.
Битрейт : 3500 Кбит/сек
Ширина : 1280 пикселей
Высота : 720 пикселей
Соотношение сторон : 16:9
Режим частоты кадров : Постоянный
Частота кадров : 25,000 кадров/сек
Цветовое пространство : YUV
Субдискретизация насыщенности : 4:2:0
Битовая глубина : 8 бит
Тип развёртки : Прогрессивная
Бит/(Пиксели*Кадры) : 0.152
Размер потока : 1,23 Гбайт (95%)
Библиотека кодирования : x264 core 148 r2638 7599210
Настройки программы : cabac=1 / ref=8 / deblock=1:3:3 / analyse=0x3:0x113 / me=umh / subme=10 / psy=1 / psy_rd=1.00:0.15 / mixed_ref=1 / me_range=32 / chroma_me=1 / trellis=2 / 8x8dct=1 / cqm=0 / deadzone=21,11 / fast_pskip=1 / chroma_qp_offset=0 / threads=6 / lookahead_threads=1 / sliced_threads=0 / nr=0 / decimate=1 / interlaced=0 / bluray_compat=0 / constrained_intra=0 / bframes=3 / b_pyramid=2 / b_adapt=2 / b_bias=0 / direct=3 / weightb=1 / open_gop=0 / weightp=2 / keyint=250 / keyint_min=25 / scenecut=40 / intra_refresh=0 / rc_lookahead=40 / rc=2pass / mbtree=1 / bitrate=3500 / ratetol=1.0 / qcomp=0.60 / qpmin=0 / qpmax=69 / qpstep=4 / cplxblur=20.0 / qblur=0.5 / vbv_maxrate=50000 / vbv_bufsize=62500 / nal_hrd=none / filler=0 / ip_ratio=1.40 / aq=1:1.00
Default : Да
Forced : Нет

Аудио
Идентификатор : 2
Формат : AC-3
Формат/Информация : Audio Coding 3
Коммерческое название : Dolby Digital
Идентификатор кодека : A_AC3
Продолжительность : 50 м. 17 с.
Вид битрейта : Постоянный
Битрейт : 192 Кбит/сек
Каналы : 2 канала
ChannelLayout : L R
Частота : 48,0 КГц
Частота кадров : 31,250 кадров/сек (1536 SPF)
Метод сжатия : С потерями
Размер потока : 69,1 Мбайт (5%)
ServiceKind/String : Complete Main
Default : Да
Forced : Нет

Внимание! Раздача ведётся путём добавления новых серий; при каждом добавлении создаётся новый торрент. Чтобы начать докачку новой серии, пользователям необходимо сделать следующее:
(1) остановить скачивание,
(2) удалить старый торрент у себя из клиента (старые серии удалять не надо),
(3) скачать новый торрент и запустить его у себя в клиенте вместо старого, при этом указать клиенту путь в старую папку куда и должно происходить скачивание новых серий.

Ваш клиент при этом должен произвести хеширование (проверку) старой папки (если не производит сам - помогите ему сделать это), и будет докачивать только те серии которых у вас ещё нет. Старые серии при этом не удаляются, а продолжают раздаваться!

Eсли вы уже удалили старые серии, то предотвратить повторную закачку старых серий можно, отжав галочку в соответствующих местах при запуске нового торрента. По возможности, желательно не удалять старые серии как можно дольше чтобы релизёр не столько продолжал раздавать старые серии, а смог сконцентрироваться на новых.
pb.wtf



Скачать Хорошая жена через торрент https://img15.lostpic.net/2019/11/11/f66036182d5249b18eb8761fe25d9ab9.jpg Скачать фильм Хорошая жена через торрент бесплантно в хорошем качестве Описание: Действие российской адаптации популярного американского телесериала разворачивается в Санкт-Петербурге. В течение одного дня ... 10 10 3
Торрент: Зарегистрирован [2019-11-28 17:20] · скачан: 19 раз
Статус: √ проверено
Размер: 25.25 GB
Как cкачать? Как скачать Хорошая жена через торрент | qTorrent

% Раздел Тема Автор DL S | L
Наши сериалы [ 12.32 GB ] Хорошая жена / Сезон: 1 / Серии: 1-20 из 20 [2019 HDTVRip] bober100 Скачать
1 | 0
Наши сериалы [ 55.52 GB ] Хорошая жена / Сезон: 1 / Серии: 1-20 из 20 [2019 HDTV 1080i] bober100 Скачать
1 | 0
Наши сериалы [ 15 GB ] Хорошая жена / Сезон: 1 / Серии: 1-20 из 20 [2019 HDTVRip-AVC] bober100 Скачать
1 | 0
Наши сериалы [ 11.72 GB ] Хорошая жена / Сезон: 1 / Серии: 1-20 из 20 [2019 SATRip] bober100 Скачать
1 | 0

28-11-2019 20:33  

Отключить всю рекламу на сайте

    Дорогой пользователь! Огромная просьба, поблагодарите релизера, оцените раздачу и оставьте свои комментарий, если Вы скачали Хорошая жена через торрент бесплатно! Внесите свою лепту в развитие PiratBit!
    Комментировать посты могут только пользователи прошедшие не сложную регистрацию
    Показать сообщения:    

    Хорошая жена через торрент
    Скачать бесплатно Хорошая жена
    Хорошая жена скачать торрент
    Хорошая жена смотреть онлайн
    Cкачать фильм Хорошая жена бесплатно
    Хорошая жена скачать торрент в хорошем качестве
    Хорошая жена смотреть онлайн бесплатно в хорошем качестве


    Вы не можете начинать темы
    Вы не можете отвечать на сообщения
    Вы не можете редактировать свои сообщения
    Вы не можете удалять свои сообщения
    Вы не можете голосовать в опросах
    Вы не можете прикреплять файлы к сообщениям
    Вы можете скачивать файлы