Ссылка на приватное зеркало всего за 1$. Внимание количество ограничено!!!

OK

1+1

iTunes

мы

OK

1

WEB-DLRip

Джокер

Пифагор

Ведьмак / The Witcher сериал

Лицензия

ПШазам

ОК

Оно 2

iTunes

30
pack

Вам бонус

ВАЖНО

!!Акция!!

Alien_RageХит недели

RePack

Resident Evil 21

ИГРА 18+

pack

RePack

jed

RePack

fifa19

RePack

Assassins Creed: Odyssey

RePack

NEED FOR SPEED™ PAYBACK

4 сезон

9 сезон

Бесстыжие 9 сезон

Все сериалы

все сериалы на PB.wtf

RePack

FAR CRY 5
  

Они / Haunt (Скотт Бек, Брайан Вудс) [2019, Ужасы, триллер, WEB-DL 1080p] DUB [iTunes] pb.wtf

Они через торрент pb.wtf

Раздают: 9 [ 63 KB/s ]
Размер: 5.98 GB | Добавлен: 2 мес. 4 д. назад | Торрент скачан:286 раз
Скачать  

17-11-2019 21:19 Они Скачать торрент  

Они / Haunt
Год выпуска: 2019
Страна: США
Студия: Broken Road Productions, Nickel City Pictures, Sierra / Affinity
Жанр: Ужасы, триллер
Продолжительность: 01:32:35
Перевод: Дублированный | iTunes
Субтитры: Английские

Режиссер: Скотт Бек, Брайан Вудс

rating

В ролях: Кэти Стивенс, Уилл Бриттейн, Лорин Алиса МакКлейн, Эндрю Колдуэлл, Шази Раджа, Шулер Хелфорд, Филлип Джонсон Ричардсон, Чейни Морроу, Джастин Марксен, Терри Партыка

Описание: На Хэллоуин в поисках острых ощущений группа студентов отправляется за город на аттракцион «Комнаты страха», который обещает воплотить кошмары из самых жутких фильмов ужасов. Вскоре друзья понимают, что это вовсе не место для игр, что под масками клоунов - не люди, а существа из другого мира, а сами они теперь - настоящие герои хоррора и должны разгадать природу зла, чтобы выжить.

Качество: WEB-DL 1080p
Формат: MKV

Видео: MPEG-4 AVC, 1920x800, 8214 Кbit/s, 23.976 fps
Аудио#1: 48 kHz, AC3, 5.1, 384 Kbps | iTunes | RUS |
Аудио#2: 48 kHz, E-AC3, 5.1, 640 Kbps | Оригинал | ENG |
скриншот  скриншот  скриншот  скриншот  скриншот  

General
Unique ID : 100174770366198736626518931279861392611 (0x4B5CF580808F27C921396DEDFB8224E3)
Complete name : D:Video111Haunt.2019.WEB-DL.1080p.seleZen.mkv
Format : Matroska
Format version : Version 4
File size : 5.98 GiB
Duration : 1 h 32 min
Overall bit rate : 9 240 kb/s
Movie name : Haunt 2019 from селезень
Encoded date : UTC 2019-11-17 21:01:35
Writing application : mkvmerge v40.0.0 ('Old Town Road + Pony') 64-bit
Writing library : libebml v1.3.9 + libmatroska v1.5.2

Video
ID : 1
Format : AVC
Format/Info : Advanced Video Codec
Format profile : High@L4
Format settings : CABAC / 4 Ref Frames
Format settings, CABAC : Yes
Format settings, Reference : 4 frames
Codec ID : V_MPEG4/ISO/AVC
Duration : 1 h 32 min
Bit rate mode : Constant
Bit rate : 8 214 kb/s
Nominal bit rate : 10 000 kb/s
Width : 1 920 pixels
Height : 800 pixels
Display aspect ratio : 2.40:1
Frame rate mode : Constant
Frame rate : 23.976 (24000/1001) FPS
Color space : YUV
Chroma subsampling : 4:2:0
Bit depth : 8 bits
Scan type : Progressive
Bits/(Pixel*Frame) : 0.223
Stream size : 5.31 GiB (89%)
Language : English
Default : Yes
Forced : No
Color range : Limited
Color primaries : BT.709
Transfer characteristics : BT.709
Matrix coefficients : BT.709

Audio #1
ID : 2
Format : AC-3
Format/Info : Audio Coding 3
Commercial name : Dolby Digital
Codec ID : A_AC3
Duration : 1 h 32 min
Bit rate mode : Constant
Bit rate : 384 kb/s
Channel(s) : 6 channels
Channel layout : L R C LFE Ls Rs
Sampling rate : 48.0 kHz
Frame rate : 31.250 FPS (1536 SPF)
Bit depth : 16 bits
Compression mode : Lossy
Stream size : 254 MiB (4%)
Title : iTunes
Language : Russian
Service kind : Complete Main
Default : Yes
Forced : Yes

Audio #2
ID : 3
Format : E-AC-3
Format/Info : Enhanced AC-3
Commercial name : Dolby Digital Plus
Codec ID : A_EAC3
Duration : 1 h 32 min
Bit rate mode : Constant
Bit rate : 640 kb/s
Channel(s) : 6 channels
Channel layout : L R C LFE Ls Rs
Sampling rate : 48.0 kHz
Frame rate : 31.250 FPS (1536 SPF)
Compression mode : Lossy
Stream size : 424 MiB (7%)
Title : Original
Language : English
Service kind : Complete Main
Default : No
Forced : No

Text #1
ID : 4
Format : UTF-8
Codec ID : S_TEXT/UTF8
Codec ID/Info : UTF-8 Plain Text
Duration : 1 h 30 min
Bit rate : 36 b/s
Count of elements : 885
Stream size : 24.1 KiB (0%)
Title : Full
Language : English
Default : No
Forced : No

Text #2
ID : 5
Format : UTF-8
Codec ID : S_TEXT/UTF8
Codec ID/Info : UTF-8 Plain Text
Duration : 1 h 31 min
Bit rate : 43 b/s
Count of elements : 1290
Stream size : 29.0 KiB (0%)
Title : SDH
Language : English
Default : No
Forced : No

pb.wtf



Скачать Они через торрент https://img15.lostpic.net/2019/11/17/456d7d0cd3e0300cecc5af27379bc85b.jpg Скачать фильм Они через торрент бесплантно в хорошем качестве Описание: На Хэллоуин в поисках острых ощущений группа студентов отправляется за город на аттракцион «Комнаты страха», который обещает ... 10 10 10
Торрент: Зарегистрирован [2019-11-17 21:19] · скачан: 286 раз
Статус: √ проверено
Размер: 5.98 GB
Как cкачать? Как скачать Они через торрент | qTorrent

% Раздел Тема Автор DL S | L
Фильмы 2019-2020 [DVDrip, WEB-DLRip, HDrip] (DUB, MVO) [ 1.46 GB ] Они / Haunt [2019 WEB-DLRip] bober100 Скачать
16 | 0
Фильмы 2010 [ 1.46 GB ] Поймать чтобы убить / Hunt to Kill [2010 HDRip ] markfiter Скачать
1 | 0

28-11-2019 20:33  

Отключить всю рекламу на сайте

    Дорогой пользователь! Огромная просьба, поблагодарите релизера, оцените раздачу и оставьте свои комментарий, если Вы скачали Они через торрент бесплатно! Внесите свою лепту в развитие PiratBit!
    Комментировать посты могут только пользователи прошедшие не сложную регистрацию
    Показать сообщения:    

    Они через торрент
    Скачать бесплатно Они
    Они скачать торрент
    Они смотреть онлайн
    Cкачать фильм Они бесплатно
    Они скачать торрент в хорошем качестве
    Они смотреть онлайн бесплатно в хорошем качестве


    Вы не можете начинать темы
    Вы не можете отвечать на сообщения
    Вы не можете редактировать свои сообщения
    Вы не можете удалять свои сообщения
    Вы не можете голосовать в опросах
    Вы не можете прикреплять файлы к сообщениям
    Вы можете скачивать файлы